  0
SECTION
  2
HEADER
  9
$ACADVER
  1
AC1015
  9
$ACADMAINTVER
 70
           6
  9
$DWGCODEPAGE
  3
ANSI_1252
  9
$INSBASE
 10
0.0
 20
0.0
 30
0.0
  9
$EXTMIN
 10
-1024.766323086752
 20
-530.778791530374
 30
0.0
  9
$EXTMAX
 10
1024.312496956247
 20
917.628349585544
 30
0.0
  9
$LIMMIN
 10
-1024.766323086752
 20
-530.778791530374
  9
$LIMMAX
 10
1024.312496956247
 20
917.628349585544
  9
$ORTHOMODE
 70
           0
  9
$REGENMODE
 70
           1
  9
$FILLMODE
 70
           1
  9
$QTEXTMODE
 70
           0
  9
$MIRRTEXT
 70
           1
  9
$LTSCALE
 40
1.0
  9
$ATTMODE
 70
           1
  9
$TEXTSIZE
 40
0.25
  9
$TRACEWID
 40
1.0
  9
$TEXTSTYLE
  7
STANDARD
  9
$CLAYER
  8
0
  9
$CELTYPE
  6
Continuous
  9
$CECOLOR
 62
           7
  9
$CELTSCALE
 40
1.0
  9
$DISPSILH
 70
           0
  9
$DIMSCALE
 40
1.0
  9
$DIMASZ
 40
4.0
  9
$DIMEXO
 40
1.5
  9
$DIMDLI
 40
10.0
  9
$DIMRND
 40
0.01
  9
$DIMDLE
 40
0.0
  9
$DIMEXE
 40
3.0
  9
$DIMTP
 40
0.0
  9
$DIMTM
 40
0.0
  9
$DIMTXT
 40
3.0
  9
$DIMCEN
 40
0.09
  9
$DIMTSZ
 40
0.0
  9
$DIMTOL
 70
           0
  9
$DIMLIM
 70
           0
  9
$DIMTIH
 70
           1
  9
$DIMTOH
 70
           1
  9
$DIMSE1
 70
           0
  9
$DIMSE2
 70
           0
  9
$DIMTAD
 70
           0
  9
$DIMZIN
 70
           1
  9
$DIMBLK
  1

  9
$DIMASO
 70
           0
  9
$DIMSHO
 70
           1
  9
$DIMPOST
  1
<>mm
  9
$DIMAPOST
  1

  9
$DIMALT
 70
           0
  9
$DIMALTD
 70
           2
  9
$DIMALTF
 40
1.0
  9
$DIMLFAC
 40
1.0
  9
$DIMTOFL
 70
           1
  9
$DIMTVP
 40
0.0
  9
$DIMTIX
 70
           0
  9
$DIMSOXD
 70
           0
  9
$DIMSAH
 70
           0
  9
$DIMBLK1
  1

  9
$DIMBLK2
  1

  9
$DIMSTYLE
  2
STANDARD
  9
$DIMCLRD
 70
           0
  9
$DIMCLRE
 70
           0
  9
$DIMCLRT
 70
           0
  9
$DIMTFAC
 40
1.0
  9
$DIMGAP
 40
1.5
  9
$DIMJUST
 70
           0
  9
$DIMSD1
 70
           0
  9
$DIMSD2
 70
           0
  9
$DIMTOLJ
 70
           1
  9
$DIMTZIN
 70
           0
  9
$DIMALTZ
 70
           0
  9
$DIMALTTZ
 70
           0
  9
$DIMUPT
 70
           0
  9
$DIMDEC
 70
           2
  9
$DIMTDEC
 70
           2
  9
$DIMALTU
 70
           2
  9
$DIMALTTD
 70
           2
  9
$DIMTXSTY
  7
STANDARD
  9
$DIMAUNIT
 70
           0
  9
$DIMADEC
 70
           2
  9
$DIMALTRND
 40
0.0
  9
$DIMAZIN
 70
           0
  9
$DIMDSEP
 70
           0
  9
$DIMATFIT
 70
           0
  9
$DIMFRAC
 70
           0
  9
$DIMLDRBLK
  1

  9
$DIMLUNIT
 70
           2
  9
$DIMLWD
 70
           0
  9
$DIMLWE
 70
           0
  9
$DIMTMOVE
 70
           0
  9
$LUNITS
 70
           2
  9
$LUPREC
 70
           2
  9
$SKETCHINC
 40
1.0
  9
$FILLETRAD
 40
1.0
  9
$AUNITS
 70
           0
  9
$AUPREC
 70
           2
  9
$MENU
  1
acad
  9
$ELEVATION
 40
0.0
  9
$PELEVATION
 40
0.0
  9
$THICKNESS
 40
0.0
  9
$LIMCHECK
 70
           0
  9
$CHAMFERA
 40
0.0
  9
$CHAMFERB
 40
0.0
  9
$CHAMFERC
 40
0.0
  9
$CHAMFERD
 40
0.0
  9
$SKPOLY
 70
           0
  9
$TDCREATE
 40
0.000000000
  9
$TDUCREATE
 40
0.000000000
  9
$TDUPDATE
 40
2449702.667959363
  9
$TDUUPDATE
 40
0.000000000
  9
$TDINDWG
 40
0.0000000000
  9
$TDUSRTIMER
 40
0.0000000000
  9
$USRTIMER
 70
           1
  9
$ANGBASE
 50
0.0
  9
$ANGDIR
 70
           1
  9
$PDMODE
 70
           0
  9
$PDSIZE
 40
0.0
  9
$PLINEWID
 40
0.0
  9
$SPLFRAME
 70
           0
  9
$SPLINETYPE
 70
           5
  9
$SPLINESEGS
 70
          20
  9
$HANDSEED
  5
41D
  9
$SURFTAB1
 70
           6
  9
$SURFTAB2
 70
           6
  9
$SURFTYPE
 70
           6
  9
$SURFU
 70
           6
  9
$SURFV
 70
           6
  9
$UCSBASE
  2

  9
$UCSNAME
  2

  9
$UCSORG
 10
0.0
 20
0.0
 30
0.0
  9
$UCSXDIR
 10
1.0
 20
0.0
 30
0.0
  9
$UCSYDIR
 10
0.0
 20
1.0
 30
0.0
  9
$UCSORTHOREF
  2

  9
$UCSORTHOVIEW
 70
           0
  9
$UCSORGTOP
 10
0.0
 20
0.0
 30
0.0
  9
$UCSORGBOTTOM
 10
0.0
 20
0.0
 30
0.0
  9
$UCSORGLEFT
 10
0.0
 20
0.0
 30
0.0
  9
$UCSORGRIGHT
 10
0.0
 20
0.0
 30
0.0
  9
$UCSORGFRONT
 10
0.0
 20
0.0
 30
0.0
  9
$UCSORGBACK
 10
0.0
 20
0.0
 30
0.0
  9
$PUCSBASE
  2

  9
$PUCSNAME
  2

  9
$PUCSORG
 10
0.0
 20
0.0
 30
0.0
  9
$PUCSXDIR
 10
1.0
 20
0.0
 30
0.0
  9
$PUCSYDIR
 10
0.0
 20
1.0
 30
0.0
  9
$PUCSORTHOREF
  2

  9
$PUCSORTHOVIEW
 70
           0
  9
$PUCSORGTOP
 10
0.0
 20
0.0
 30
0.0
  9
$PUCSORGBOTTOM
 10
0.0
 20
0.0
 30
0.0
  9
$PUCSORGLEFT
 10
0.0
 20
0.0
 30
0.0
  9
$PUCSORGRIGHT
 10
0.0
 20
0.0
 30
0.0
  9
$PUCSORGFRONT
 10
0.0
 20
0.0
 30
0.0
  9
$PUCSORGBACK
 10
0.0
 20
0.0
 30
0.0
  9
$USERI1
 70
           0
  9
$USERI2
 70
           0
  9
$USERI3
 70
           0
  9
$USERI4
 70
           0
  9
$USERI5
 70
           0
  9
$USERR1
 40
0.0
  9
$USERR2
 40
0.0
  9
$USERR3
 40
0.0
  9
$USERR4
 40
0.0
  9
$USERR5
 40
0.0
  9
$WORLDVIEW
 70
           1
  9
$SHADEDGE
 70
           3
  9
$SHADEDIF
 70
          70
  9
$TILEMODE
 70
           1
  9
$MAXACTVP
 70
          16
  9
$PINSBASE
 10
0.0
 20
0.0
 30
0.0
  9
$PLIMCHECK
 70
           0
  9
$PEXTMIN
 10
0.0
 20
0.0
 30
0.0
  9
$PEXTMAX
 10
297.0
 20
210.0
 30
0.0
  9
$PLIMMIN
 10
0.0
 20
0.0
  9
$PLIMMAX
 10
297.0
 20
210.0
  9
$UNITMODE
 70
           0
  9
$VISRETAIN
 70
           0
  9
$PLINEGEN
 70
           1
  9
$PSLTSCALE
 70
           1
  9
$TREEDEPTH
 70
        3020
  9
$CMLSTYLE
  2
STANDARD
  9
$CMLJUST
 70
           0
  9
$CMLSCALE
 40
1.0
  9
$PROXYGRAPHICS
 70
           0
  9
$MEASUREMENT
 70
           0
  9
$CELWEIGHT
370
           0
  9
$ENDCAPS
280
           0
  9
$JOINSTYLE
280
           0
  9
$LWDISPLAY
290
           0
  9
$INSUNITS
 70
           1
  9
$HYPERLINKBASE
  1

  9
$STYLESHEET
  1

  9
$XEDIT
290
           1
  9
$CEPSNTYPE
380
           0
  9
$PSTYLEMODE
290
           1
  9
$FINGERPRINTGUID
  2

  9
$VERSIONGUID
  2

  9
$EXTNAMES
290
           1
  9
$PSVPSCALE
 40
0.0
  0
ENDSEC
  0
SECTION
  2
CLASSES
  0
CLASS
  1
LWPOLYLINE
  2
AcDbPolyline
  3
AutoCAD 2000
 90
        0
280
           0
281
           1
  0
CLASS
  1
IMAGE
  2
AcDbRasterImage
  3
ISM
 90
    32895
280
           0
281
           1
  0
CLASS
  1
OLE2FRAME
  2
AcDbOle2Frame
  3
AutoCAD 2000
 90
    32768
280
           0
281
           1
  0
CLASS
  1
HATCH
  2
AcDbHatch
  3
AutoCAD 2000
 90
        0
280
           0
281
           1
  0
CLASS
  1
DICTIONARYVAR
  2
AcDbDictionaryVar
  3
AutoCAD 2000
 90
    32768
280
           0
281
           0
  0
CLASS
  1
RASTERVARIABLES
  2
AcDbRasterVariables
  3
ISM
 90
    32768
280
           0
281
           0
  0
CLASS
  1
IMAGEDEF
  2
AcDbRasterImageDef
  3
ISM
 90
    32768
280
           0
281
           0
  0
CLASS
  1
IMAGEDEF_REACTOR
  2
AcDbRasterImageDefReactor
  3
ISM
 90
    32769
280
           0
281
           0
  0
CLASS
  1
IDBUFFER
  2
AcDbIdBuffer
  3
AutoCAD 2000
 90
    32768
280
           0
281
           0
  0
CLASS
  1
SPATIAL_FILTER
  2
AcDbSpatialFilter
  3
AutoCAD 2000
 90
    32768
280
           0
281
           0
  0
CLASS
  1
XRECORD
  2
AcDbXrecord
  3
AutoCAD 2000
 90
    32768
280
           0
281
           0
  0
CLASS
  1
SORTENTSTABLE
  2
AcDbSortentsTable
  3
AutoCAD 2000
 90
    32768
280
           0
281
           0
  0
CLASS
  1
LAYER_INDEX
  2
AcDbLayerIndex
  3
AutoCAD 2000
 90
    32768
280
           0
281
           0
  0
CLASS
  1
SPATIAL_INDEX
  2
AcDbSpatialIndex
  3
AutoCAD 2000
 90
    32768
280
           0
281
           0
  0
CLASS
  1
OBJECT_PTR
  2
CAseDLPNTableRecord
  3
"ASE-LPNTableRecord"
 90
    32769
280
           0
281
           0
  0
CLASS
  1
LAYOUT
  2
AcDbLayout
  3
AutoCAD 2000
 90
        0
280
           0
281
           0
  0
CLASS
  1
PLOTSETTINGS
  2
AcDbPlotSettings
  3
AutoCAD 2000
 90
    32768
280
           0
281
           0
  0
CLASS
  1
ACDBDICTIONARYWDFLT
  2
AcDbDictionaryWithDefault
  3
AutoCAD 2000
 90
        0
280
           0
281
           0
  0
CLASS
  1
ACDBPLACEHOLDER
  2
AcDbPlaceHolder
  3
AutoCAD 2000
 90
        0
280
           0
281
           0
  0
ENDSEC
  0
SECTION
  2
TABLES
  0
TABLE
  2
VPORT
  5
7
100
AcDbSymbolTable
 70
           1
  0
VPORT
  5
15
100
AcDbSymbolTableRecord
100
AcDbViewportTableRecord
  2
*ACTIVE
 70
           0
 10
0.0
 20
0.0
 11
1.0
 21
1.0
 12
0.0
 22
0.0
 13
0.0
 23
0.0
 14
5.0
 24
5.0
 15
5.0
 25
5.0
 16
0.0
 26
0.0
 36
25.4
 17
-0.226913065252
 27
193.424779027585
 37
-24.4
 40
1477.375283938237
 41
2.515444015444
 42
50.0
 43
0.0
 44
0.0
 50
0.0
 51
0.0
 71
           0
 72
         100
 73
           1
 74
           1
 75
           0
 76
           1
 77
           0
 78
           0
281
           0
 65
           0
110
0.0
120
0.0
130
0.0
111
1.0
121
0.0
131
0.0
112
0.0
122
1.0
132
0.0
345
0
346
0
 79
           0
146
0.0
  0
ENDTAB
  0
TABLE
  2
LTYPE
  5
4
100
AcDbSymbolTable
 70
          14
  0
LTYPE
  5
11
100
AcDbSymbolTableRecord
100
AcDbLinetypeTableRecord
  2
ByBlock
 70
          64
  3

 72
          65
 73
           0
 40
0.0
  0
LTYPE
  5
12
100
AcDbSymbolTableRecord
100
AcDbLinetypeTableRecord
  2
ByLayer
 70
          64
  3

 72
          65
 73
           0
 40
0.0
  0
LTYPE
  5
13
100
AcDbSymbolTableRecord
100
AcDbLinetypeTableRecord
  2
Continuous
 70
          64
  3
Solid line
 72
          65
 73
           0
 40
0.0
  0
LTYPE
  5
24
100
AcDbSymbolTableRecord
100
AcDbLinetypeTableRecord
  2
BORDER
 70
           0
  3
BORDER
 72
          65
 73
           6
 40
1.75
 49
0.5
 74
           0
 49
-0.25
 74
           0
 49
0.5
 74
           0
 49
-0.25
 74
           0
 49
0.0
 74
           0
 49
-0.25
 74
           0
  0
LTYPE
  5
25
100
AcDbSymbolTableRecord
100
AcDbLinetypeTableRecord
  2
CENTER
 70
           0
  3
CENTER
 72
          65
 73
           4
 40
2.0
 49
1.25
 74
           0
 49
-0.25
 74
           0
 49
0.25
 74
           0
 49
-0.25
 74
           0
  0
LTYPE
  5
26
100
AcDbSymbolTableRecord
100
AcDbLinetypeTableRecord
  2
DASHDOT
 70
           0
  3
DASHDOT
 72
          65
 73
           4
 40
1.0
 49
0.5
 74
           0
 49
-0.25
 74
           0
 49
0.0
 74
           0
 49
-0.25
 74
           0
  0
LTYPE
  5
27
100
AcDbSymbolTableRecord
100
AcDbLinetypeTableRecord
  2
DASHED
 70
           0
  3
DASHED
 72
          65
 73
           2
 40
0.75
 49
0.5
 74
           0
 49
-0.25
 74
           0
  0
LTYPE
  5
28
100
AcDbSymbolTableRecord
100
AcDbLinetypeTableRecord
  2
DIVIDE
 70
           0
  3
DIVIDE
 72
          65
 73
           6
 40
1.25
 49
0.5
 74
           0
 49
-0.25
 74
           0
 49
0.0
 74
           0
 49
-0.25
 74
           0
 49
0.0
 74
           0
 49
-0.25
 74
           0
  0
LTYPE
  5
29
100
AcDbSymbolTableRecord
100
AcDbLinetypeTableRecord
  2
DOT
 70
           0
  3
DOT
 72
          65
 73
           2
 40
0.25
 49
0.0
 74
           0
 49
-0.25
 74
           0
  0
LTYPE
  5
2A
100
AcDbSymbolTableRecord
100
AcDbLinetypeTableRecord
  2
HIDDEN
 70
           0
  3
HIDDEN
 72
          65
 73
           2
 40
0.375
 49
0.25
 74
           0
 49
-0.125
 74
           0
  0
LTYPE
  5
2B
100
AcDbSymbolTableRecord
100
AcDbLinetypeTableRecord
  2
PHANTOM
 70
           0
  3
PHANTOM
 72
          65
 73
           6
 40
2.5
 49
1.25
 74
           0
 49
-0.25
 74
           0
 49
0.25
 74
           0
 49
-0.25
 74
           0
 49
0.25
 74
           0
 49
-0.25
 74
           0
  0
LTYPE
  5
2C
100
AcDbSymbolTableRecord
100
AcDbLinetypeTableRecord
  2
$INVISIBLE
 70
           0
  3
$INVISIBLE
 72
          65
 73
           2
 40
200.0
 49
-100.0
 74
           0
 49
-100.0
 74
           0
  0
LTYPE
  5
2D
100
AcDbSymbolTableRecord
100
AcDbLinetypeTableRecord
  2
$SNAPEXT
 70
           0
  3
$SNAPEXT
 72
          65
 73
           2
 40
0.04
 49
0.02
 74
           0
 49
-0.02
 74
           0
  0
LTYPE
  5
2E
100
AcDbSymbolTableRecord
100
AcDbLinetypeTableRecord
  2
$AUXILIARY
 70
           0
  3
$AUXILIARY
 72
          65
 73
           2
 40
0.1
 49
0.05
 74
           0
 49
-0.05
 74
           0
  0
ENDTAB
  0
TABLE
  2
LAYER
  5
2
100
AcDbSymbolTable
 70
           4
  0
LAYER
  5
14
100
AcDbSymbolTableRecord
100
AcDbLayerTableRecord
  2
0
 70
           0
 62
           7
  6
Continuous
290
           1
370
           0
390
0
1001
TCAD
1000
TCW_LAYER_ORDER
1002
{
1071
        0
1002
}
  0
LAYER
  5
2F
100
AcDbSymbolTableRecord
100
AcDbLayerTableRecord
  2
Dimensions
 70
           0
 62
           7
  6
Continuous
290
           1
370
           0
390
0
1001
TCAD
1000
TCW_LAYER_ORDER
1002
{
1071
        0
1002
}
  0
LAYER
  5
30
100
AcDbSymbolTableRecord
100
AcDbLayerTableRecord
  2
3D
 70
           0
 62
           7
  6
Continuous
290
           1
370
           0
390
0
1001
TCAD
1000
TCW_LAYER_ORDER
1002
{
1071
        0
1002
}
  0
LAYER
  5
31
100
AcDbSymbolTableRecord
100
AcDbLayerTableRecord
  2
DETAIL
 70
           0
 62
           7
  6
Continuous
290
           1
370
           0
390
0
1001
TCAD
1000
TCW_LAYER_ORDER
1002
{
1071
        0
1002
}
  0
ENDTAB
  0
TABLE
  2
STYLE
  5
3
100
AcDbSymbolTable
 70
           1
  0
STYLE
  5
17
100
AcDbSymbolTableRecord
100
AcDbTextStyleTableRecord
  2
STANDARD
 70
           0
 40
0.0
 41
1.0
 50
0.0
 71
           0
 42
3.0
  3

  4

1001
ACAD
1000
Times New Roman
1071
      290
  0
ENDTAB
  0
TABLE
  2
VIEW
  5
5
100
AcDbSymbolTable
 70
           1
  0
VIEW
  5
32
100
AcDbSymbolTableRecord
100
AcDbViewTableRecord
  2
View_0
 70
           0
 40
8.267716535433
 10
5.846456692913
 20
4.133858267717
 41
11.692913385827
 11
0.0
 21
0.0
 31
1.0
 12
0.0
 22
0.0
 32
0.0
 42
45.247172312671
 43
0.0
 44
0.0
 50
0.0
 71
           0
281
           0
 72
           0
110
0.0
120
0.0
130
0.0
111
1.0
121
0.0
131
0.0
112
0.0
122
1.0
132
0.0
  0
ENDTAB
  0
TABLE
  2
UCS
  5
6
100
AcDbSymbolTable
 70
           0
  0
ENDTAB
  0
TABLE
  2
APPID
  5
8
100
AcDbSymbolTable
 70
           2
  0
APPID
  5
16
100
AcDbSymbolTableRecord
100
AcDbRegAppTableRecord
  2
ACAD
 70
           0
  0
APPID
  5
23
100
AcDbSymbolTableRecord
100
AcDbRegAppTableRecord
  2
TCAD
 70
           0
  0
ENDTAB
  0
TABLE
  2
DIMSTYLE
  5
9
100
AcDbSymbolTable
 70
           1
100
AcDbDimStyleTable
 71
           0
  0
DIMSTYLE
105
18
100
AcDbSymbolTableRecord
100
AcDbDimStyleTableRecord
  2
STANDARD
 70
           0
  3
<>mm
  4

 40
1.0
 41
4.0
 42
1.5
 43
10.0
 44
3.0
 45
0.01
 46
0.0
 47
0.0
 48
0.0
 71
           0
 72
           0
 73
           1
 74
           1
 75
           0
 76
           0
 77
           0
 78
           1
 79
           0
140
3.0
141
0.09
142
0.0
143
1.0
144
1.0
145
0.0
146
1.0
147
1.5
148
0.01
170
           0
171
           2
172
           1
173
           0
174
           0
175
           0
176
           0
177
           0
178
           0
179
           2
271
           2
272
           2
273
           2
274
           2
275
           0
276
           2
277
           2
278
          46
279
           0
280
           0
281
           0
282
           0
283
           1
284
           0
285
           0
286
           0
288
           0
340
17
341
0
342
0
343
0
344
0
371
          -2
372
          -2
  0
ENDTAB
  0
TABLE
  2
BLOCK_RECORD
  5
1
100
AcDbSymbolTable
 70
           2
  0
BLOCK_RECORD
  5
A
100
AcDbSymbolTableRecord
100
AcDbBlockTableRecord
  2
*MODEL_SPACE
340
41B
  0
BLOCK_RECORD
  5
B
100
AcDbSymbolTableRecord
100
AcDbBlockTableRecord
  2
*PAPER_SPACE
340
41C
  0
BLOCK_RECORD
  5
D8
100
AcDbSymbolTableRecord
100
AcDbBlockTableRecord
  2
*D0
340
0
  0
BLOCK_RECORD
  5
F1
100
AcDbSymbolTableRecord
100
AcDbBlockTableRecord
  2
*D1
340
0
  0
ENDTAB
  0
ENDSEC
  0
SECTION
  2
BLOCKS
  0
BLOCK
  5
D
100
AcDbEntity
  8
0
100
AcDbBlockBegin
  2
*MODEL_SPACE
 70
           0
 10
0.0
 20
0.0
 30
0.0
  3
*MODEL_SPACE
  1

  0
ENDBLK
  5
E
100
AcDbEntity
  8
0
100
AcDbBlockEnd
  0
BLOCK
  5
F
100
AcDbEntity
 67
           1
  8
0
100
AcDbBlockBegin
  2
*PAPER_SPACE
 70
           0
 10
0.0
 20
0.0
 30
0.0
  3
*PAPER_SPACE
  1

  0
ENDBLK
  5
10
100
AcDbEntity
 67
           1
  8
0
100
AcDbBlockEnd
  0
BLOCK
  5
D9
100
AcDbEntity
  8
0
100
AcDbBlockBegin
  2
*D0
 70
           1
 10
0.0
 20
0.0
 30
0.0
  3
*D0
  1

  0
LINE
  5
DA
100
AcDbEntity
  8
0
  6
Continuous
 62
           7
100
AcDbLine
 10
-774.623875437825
 20
-29.32732177033
 30
0.0
 11
-862.493471680264
 21
-29.360729183928
 31
0.0
1001
ACAD
1000
TCW40_DEV_WIDTH
1002
{
1040
-3.0
1002
}
1001
TCAD
1000
TCW_ATTRIBUTE
1002
{
1000
DPC<150.00>
1002
}
  0
LINE
  5
DB
100
AcDbEntity
  8
0
  6
Continuous
 62
           7
100
AcDbLine
 10
-774.680904398758
 20
120.672670195707
 30
0.0
 11
-862.550500641198
 21
120.639262782109
 31
0.0
1001
ACAD
1000
TCW40_DEV_WIDTH
1002
{
1040
-3.0
1002
}
1001
TCAD
1000
TCW_ATTRIBUTE
1002
{
1000
DPC<150.00>
1002
}
  0
LWPOLYLINE
  5
DC
100
AcDbEntity
  8
0
  6
Continuous
 62
           7
100
AcDbPolyline
 90
        4
 70
         128
 38
0.0
 10
-862.376075550614
 20
-9.360683105262
 10
-862.376075550614
 20
-9.360683105262
 10
-862.376075550614
 20
-9.360683105262
 10
-862.393541857961
 20
36.579939323224
1001
ACAD
1000
TCW40_DEV_WIDTH
1002
{
1040
-3.0
1002
}
1001
TCAD
1000
TCW_ATTRIBUTE
1002
{
1000
DPC<150.00>
1002
}
  0
LWPOLYLINE
  5
DD
100
AcDbEntity
  8
0
  6
Continuous
 62
           7
100
AcDbPolyline
 90
        4
 70
         128
 38
0.0
 10
-862.417896788916
 20
100.63931175171
 10
-862.417896788916
 20
100.63931175171
 10
-862.417896788916
 20
100.63931175171
 10
-862.400430481569
 20
54.698689323224
1001
ACAD
1000
TCW40_DEV_WIDTH
1002
{
1040
-3.0
1002
}
1001
TCAD
1000
TCW_ATTRIBUTE
1002
{
1000
DPC<150.00>
1002
}
  0
LWPOLYLINE
  5
DF
102
{ACAD_REACTORS
330
DE
102
}
100
AcDbEntity
  8
0
  6
Continuous
 62
           7
100
AcDbPolyline
 90
        3
 70
         129
 38
0.0
 10
-862.368471689298
 20
-29.360681659795
 10
-859.776075738525
 20
-9.359694603291
 10
-864.976075362703
 20
-9.361671607233
1001
ACAD
1000
TCW40_DEV_WIDTH
1002
{
1040
-3.0
1002
}
1001
TCAD
1000
TCW_ATTRIBUTE
1002
{
1000
DPC<150.00>
1002
}
  0
HATCH
  5
DE
100
AcDbEntity
  8
0
  6
Continuous
 62
           0
100
AcDbHatch
 10
0.0
 20
0.0
 30
0.0
210
0.0
220
0.0
230
1.0
  2
SOLID
 70
           1
 71
           1
 91
        1
 92
        3
 72
           0
 73
           1
 93
        3
 10
-862.36847168929842
 20
-29.36068165979465
 10
-859.7760757385247
 20
-9.3596946032913628
 10
-864.97607536270311
 20
-9.3616716072333865
 97
        1
330
DF
 75
           0
 76
           0
 98
        0
1001
TCAD
1000
TCW_ATTRIBUTE
1002
{
1000
DPC<150.00>
1002
}
  0
LWPOLYLINE
  5
E1
102
{ACAD_REACTORS
330
E0
102
}
100
AcDbEntity
  8
0
  6
Continuous
 62
           7
100
AcDbPolyline
 90
        3
 70
         129
 38
0.0
 10
-862.425500650232
 20
120.639310306242
 10
-865.017896601005
 20
100.638323249739
 10
-859.817896976827
 20
100.640300253681
1001
ACAD
1000
TCW40_DEV_WIDTH
1002
{
1040
-3.0
1002
}
1001
TCAD
1000
TCW_ATTRIBUTE
1002
{
1000
DPC<150.00>
1002
}
  0
HATCH
  5
E0
100
AcDbEntity
  8
0
  6
Continuous
 62
           0
100
AcDbHatch
 10
0.0
 20
0.0
 30
0.0
210
0.0
220
0.0
230
1.0
  2
SOLID
 70
           1
 71
           1
 91
        1
 92
        3
 72
           0
 73
           1
 93
        3
 10
-862.4255006502317
 20
120.63931030624236
 10
-865.01789660100542
 20
100.63832324973909
 10
-859.817896976827
 20
100.6403002536811
 97
        1
330
E1
 75
           0
 76
           0
 98
        0
1001
TCAD
1000
TCW_ATTRIBUTE
1002
{
1000
DPC<150.00>
1002
}
  0
MTEXT
  5
E2
100
AcDbEntity
  8
0
  6
Continuous
 62
           0
100
AcDbMText
 10
-862.396986169765
 20
45.639314323224
 30
0.0
 40
18.0
 41
0.0
 71
           5
 72
           1
  1
\A1;DPC150.00 mm
 73
           1
 44
1.0
1001
TCAD
1000
TCW_REFPOINT
1002
{
1010
-862.396986169765
1020
45.639314323224
1030
0.0
1002
}
1000
TCW_ATTRIBUTE
1002
{
1000
DPC<150.00>
1002
}
  0
ENDBLK
  5
E3
100
AcDbEntity
  8
0
100
AcDbBlockEnd
  0
BLOCK
  5
F2
100
AcDbEntity
  8
0
100
AcDbBlockBegin
  2
*D1
 70
           1
 10
0.0
 20
0.0
 30
0.0
  3
*D1
  1

  0
LINE
  5
F3
100
AcDbEntity
  8
0
  6
Continuous
 62
           7
100
AcDbLine
 10
814.505669254496
 20
96.925739480301
 30
0.0
 11
920.199215706247
 21
96.925739480301
 31
0.0
1001
ACAD
1000
TCW40_DEV_WIDTH
1002
{
1040
-3.0
1002
}
1001
TCAD
1000
TCW_ATTRIBUTE
1002
{
1000
75mm min air void
1002
}
  0
LINE
  5
F4
100
AcDbEntity
  8
0
  6
Continuous
 62
           7
100
AcDbLine
 10
814.505669254496
 20
21.928483455259
 30
0.0
 11
920.199215706247
 21
21.928483455259
 31
0.0
1001
ACAD
1000
TCW40_DEV_WIDTH
1002
{
1040
-3.0
1002
}
1001
TCAD
1000
TCW_ATTRIBUTE
1002
{
1000
75mm min air void
1002
}
  0
LWPOLYLINE
  5
F5
100
AcDbEntity
  8
0
  6
Continuous
 62
           7
100
AcDbPolyline
 90
        2
 70
         128
 10
920.074215706247
 20
156.925739480301
 10
920.074215706247
 20
126.925739480301
1001
ACAD
1000
TCW40_DEV_WIDTH
1002
{
1040
-3.0
1002
}
1001
TCAD
1000
TCW_ATTRIBUTE
1002
{
1000
75mm min air void
1002
}
  0
LWPOLYLINE
  5
F6
100
AcDbEntity
  8
0
  6
Continuous
 62
           7
100
AcDbPolyline
 90
        2
 70
           0
 10
920.074215706247
 20
96.925739480301
 40
0.0
 41
0.0
 10
920.074215706247
 20
68.48648646778
 40
0.0
 41
0.0
1001
ACAD
1000
TCW40_DEV_WIDTH
1002
{
1040
-3.0
1002
}
1001
TCAD
1000
TCW_ATTRIBUTE
1002
{
1000
75mm min air void
1002
}
  0
LWPOLYLINE
  5
F7
100
AcDbEntity
  8
0
  6
Continuous
 62
           7
100
AcDbPolyline
 90
        2
 70
           0
 10
920.074215706247
 20
50.36773646778
 40
0.0
 41
0.0
 10
920.074215706247
 20
21.928483455259
 40
0.0
 41
0.0
1001
ACAD
1000
TCW40_DEV_WIDTH
1002
{
1040
-3.0
1002
}
1001
TCAD
1000
TCW_ATTRIBUTE
1002
{
1000
75mm min air void
1002
}
  0
LWPOLYLINE
  5
F8
100
AcDbEntity
  8
0
  6
Continuous
 62
           7
100
AcDbPolyline
 90
        2
 70
         128
 10
920.074215706247
 20
-38.071516544741
 10
920.074215706247
 20
-8.071516544741
1001
ACAD
1000
TCW40_DEV_WIDTH
1002
{
1040
-3.0
1002
}
1001
TCAD
1000
TCW_ATTRIBUTE
1002
{
1000
75mm min air void
1002
}
  0
LWPOLYLINE
  5
F9
100
AcDbEntity
  8
0
  6
Continuous
 62
           7
100
AcDbPolyline
 90
        2
 70
           0
 10
920.074215706247
 20
21.928483455259
 40
0.0
 41
0.0
 10
920.074215706247
 20
50.36773646778
 40
0.0
 41
0.0
1001
ACAD
1000
TCW40_DEV_WIDTH
1002
{
1040
-3.0
1002
}
1001
TCAD
1000
TCW_ATTRIBUTE
1002
{
1000
75mm min air void
1002
}
  0
LWPOLYLINE
  5
FA
100
AcDbEntity
  8
0
  6
Continuous
 62
           7
100
AcDbPolyline
 90
        2
 70
           0
 10
920.074215706247
 20
68.48648646778
 40
0.0
 41
0.0
 10
920.074215706247
 20
96.925739480301
 40
0.0
 41
0.0
1001
ACAD
1000
TCW40_DEV_WIDTH
1002
{
1040
-3.0
1002
}
1001
TCAD
1000
TCW_ATTRIBUTE
1002
{
1000
75mm min air void
1002
}
  0
LWPOLYLINE
  5
FC
102
{ACAD_REACTORS
330
FB
102
}
100
AcDbEntity
  8
0
  6
Continuous
 62
           7
100
AcDbPolyline
 90
        3
 70
         129
 10
920.074215706247
 20
21.928483455259
 10
916.174215706247
 20
-8.071516544741
 10
923.974215706247
 20
-8.071516544741
1001
ACAD
1000
TCW40_DEV_WIDTH
1002
{
1040
-3.0
1002
}
1001
TCAD
1000
TCW_ATTRIBUTE
1002
{
1000
75mm min air void
1002
}
  0
HATCH
  5
FB
100
AcDbEntity
  8
0
  6
Continuous
 62
           0
100
AcDbHatch
 10
0.0
 20
0.0
 30
0.0
210
0.0
220
0.0
230
1.0
  2
SOLID
 70
           1
 71
           1
 91
        1
 92
        3
 72
           0
 73
           1
 93
        3
 10
920.07421570624729
 20
21.928483455259155
 10
916.17421570624731
 20
-8.0715165447408452
 10
923.97421570624726
 20
-8.0715165447408452
 97
        1
330
FC
 75
           0
 76
           0
 98
        0
1001
TCAD
1000
TCW_ATTRIBUTE
1002
{
1000
75mm min air void
1002
}
  0
LWPOLYLINE
  5
FE
102
{ACAD_REACTORS
330
FD
102
}
100
AcDbEntity
  8
0
  6
Continuous
 62
           7
100
AcDbPolyline
 90
        3
 70
         129
 10
920.074215706247
 20
96.925739480301
 10
923.974215706247
 20
126.925739480301
 10
916.174215706247
 20
126.925739480301
1001
ACAD
1000
TCW40_DEV_WIDTH
1002
{
1040
-3.0
1002
}
1001
TCAD
1000
TCW_ATTRIBUTE
1002
{
1000
75mm min air void
1002
}
  0
HATCH
  5
FD
100
AcDbEntity
  8
0
  6
Continuous
 62
           0
100
AcDbHatch
 10
0.0
 20
0.0
 30
0.0
210
0.0
220
0.0
230
1.0
  2
SOLID
 70
           1
 71
           1
 91
        1
 92
        3
 72
           0
 73
           1
 93
        3
 10
920.07421570624729
 20
96.925739480300706
 10
923.97421570624726
 20
126.92573948030071
 10
916.17421570624731
 20
126.92573948030071
 97
        1
330
FE
 75
           0
 76
           0
 98
        0
1001
TCAD
1000
TCW_ATTRIBUTE
1002
{
1000
75mm min air void
1002
}
  0
MTEXT
  5
FF
100
AcDbEntity
  8
0
  6
Continuous
 62
           0
100
AcDbMText
 10
920.074215706247
 20
59.42711146778
 30
0.0
 40
18.0
 41
0.0
 71
           5
 72
           1
  1
\A1;75mm min air void
 73
           1
 44
1.0
1001
TCAD
1000
TCW_REFPOINT
1002
{
1010
920.074215706247
1020
59.42711146778
1030
0.0
1002
}
1000
TCW_ATTRIBUTE
1002
{
1000
75mm min air void
1002
}
  0
ENDBLK
  5
100
100
AcDbEntity
  8
0
100
AcDbBlockEnd
  0
ENDSEC
  0
SECTION
  2
ENTITIES
  0
LINE
  5
33
100
AcDbEntity
  8
0
  6
Continuous
 62
           7
100
AcDbLine
 10
-621.200828215074
 20
640.623157504452
 30
0.0
 11
-621.200828215074
 21
247.083145693967
 31
0.0
1001
ACAD
1000
TCW40_DEV_WIDTH
1002
{
1040
-3.0
1002
}
1001
TCAD
1000
TCW_CUSTOM_DATA
1002
{
1000
#$AUX@_ToolInfo Properties
1070
           8
1000
CMD_LINE@
1002
}
  0
LWPOLYLINE
  5
34
100
AcDbEntity
  8
0
  6
Continuous
 62
           7
100
AcDbPolyline
 90
        4
 70
         129
 10
-672.200828215074
 20
-159.216602958002
 10
-576.200828215074
 20
-128.359551145994
 10
-576.200828215074
 20
-530.778791530374
 10
-672.200828215074
 20
-530.778791530374
1001
ACAD
1000
TCW40_DEV_WIDTH
1002
{
1040
-3.0
1002
}
  0
HATCH
  5
35
100
AcDbEntity
  8
0
  6
Continuous
 62
           7
100
AcDbHatch
 10
0.0
 20
0.0
 30
0.0
210
0.0
220
0.0
230
1.0
  2
CONCRETE
 70
           0
 71
           0
 91
        1
 92
        3
 72
           0
 73
           1
 93
        4
 10
-672.2008282150739
 20
-159.37218696197988
 10
-576.4730651130526
 20
-128.48489833809975
 10
-576.47306511305283
 20
-530.77879153037395
 10
-672.20082821507401
 20
-530.77879153037395
 97
        0
 75
           0
 76
           1
 52
0.0
 41
100.0
 77
           0
 78
          11
 53
135.0
 43
115.0
 44
40.0
 45
-99.984898859777815
 46
-99.984898859777786
 79
           2
 49
7.07
 49
-134.33
 53
105.0
 43
85.0
 44
50.0
 45
-57.955549577344115
 46
-15.52914270615125
 79
           2
 49
5.0
 49
-55.0
 53
0.0
 43
75.0
 44
75.0
 45
0.0
 46
100.0
 79
           2
 49
5.0
 49
-95.0
 53
90.0
 43
50.0
 44
100.0
 45
-100.0
 46
0.0000000000000061
 79
           2
 49
5.0
 49
-95.0
 53
40.0
 43
50.0
 44
40.0
 45
-32.139380484326963
 46
38.302222155948904
 79
           2
 49
5.6
 49
-44.4
 53
135.0
 43
15.0
 44
40.0
 45
-39.999998235822467
 46
-39.99999823582246
 79
           2
 49
7.07107
 49
-49.49747
 53
90.0
 43
15.0
 44
40.0
 45
-40.0
 46
40.0
 79
           2
 49
5.0
 49
-75.0
 53
0.0
 43
10.0
 44
45.0
 45
40.0
 46
40.0
 79
           2
 49
5.0
 49
-75.0
 53
45.0
 43
0.0
 44
0.0
 45
-39.99999823582246
 46
39.999998235822467
 79
           2
 49
7.07107
 49
-49.49747
 53
0.0
 43
0.0
 44
5.0
 45
40.0
 46
40.0
 79
           2
 49
5.0
 49
-75.0
 53
90.0
 43
0.0
 44
0.0
 45
-40.0
 46
40.0
 79
           2
 49
5.0
 49
-75.0
 98
        0
  0
LINE
  5
36
100
AcDbEntity
  8
0
  6
Continuous
 62
           7
100
AcDbLine
 10
-476.200828215074
 20
246.928483455259
 30
0.0
 11
-476.200828215074
 21
149.928483455259
 31
0.0
1001
ACAD
1000
TCW40_DEV_WIDTH
1002
{
1040
-3.0
1002
}
1001
TCAD
1000
TCW_CUSTOM_DATA
1002
{
1000
#$AUX@_ToolInfo Properties
1070
           8
1000
CMD_LINE@
1002
}
  0
LINE
  5
37
100
AcDbEntity
  8
0
  6
Continuous
 62
           7
100
AcDbLine
 10
814.443169254495
 20
530.173062859853
 30
0.0
 11
814.443169254495
 21
-229.256761940182
 31
0.0
1001
ACAD
1000
TCW40_DEV_WIDTH
1002
{
1040
-3.0
1002
}
1001
TCAD
1000
TCW_CUSTOM_DATA
1002
{
1000
#$AUX@_ToolInfo Properties
1070
           8
1000
CMD_LINE@
1002
}
  0
LWPOLYLINE
  5
38
100
AcDbEntity
  8
0
  6
Continuous
 62
           7
100
AcDbPolyline
 90
        3
 70
         128
 10
-476.200828215074
 20
171.928483455259
 10
-476.200828215074
 20
96.925739480301
 10
814.443169254496
 20
96.925739480301
1001
ACAD
1000
TCW40_DEV_WIDTH
1002
{
1040
-3.0
1002
}
1001
TCAD
1000
TCW_CUSTOM_DATA
1002
{
1000
#$AUX@_ToolInfo Properties
1070
           8
1000
CMD_POLYLINE@
1002
}
  0
LINE
  5
39
100
AcDbEntity
  8
0
  6
Continuous
 62
           7
100
AcDbLine
 10
394.550496814383
 20
21.928483455259
 30
0.0
 11
494.550496814383
 21
21.928483455259
 31
0.0
1001
ACAD
1000
TCW40_DEV_WIDTH
1002
{
1040
-3.0
1002
}
1001
TCAD
1000
TCW_CUSTOM_DATA
1002
{
1000
#$AUX@_ToolInfo Properties
1070
           8
1000
CMD_LINE@
1002
}
  0
LINE
  5
3A
100
AcDbEntity
  8
0
  6
Continuous
 62
           7
100
AcDbLine
 10
394.550496814383
 20
21.928483455259
 30
0.0
 11
-476.200828215074
 21
21.928483455259
 31
0.0
1001
ACAD
1000
TCW40_DEV_WIDTH
1002
{
1040
-3.0
1002
}
1001
TCAD
1000
TCW_CUSTOM_DATA
1002
{
1000
#$AUX@_ToolInfo Properties
1070
           8
1000
CMD_LINE@
1002
}
  0
LINE
  5
3B
100
AcDbEntity
  8
0
  6
Continuous
 62
           7
100
AcDbLine
 10
494.550496814383
 20
21.928483455259
 30
0.0
 11
814.443169254495
 21
21.928483455259
 31
0.0
1001
ACAD
1000
TCW40_DEV_WIDTH
1002
{
1040
-3.0
1002
}
1001
TCAD
1000
TCW_CUSTOM_DATA
1002
{
1000
#$AUX@_ToolInfo Properties
1070
           8
1000
CMD_LINE@
1002
}
  0
LWPOLYLINE
  5
3C
100
AcDbEntity
  8
0
  6
Continuous
 62
           7
100
AcDbPolyline
 90
        3
 70
         128
 10
-476.200828215074
 20
21.928483455259
 10
-476.200828215074
 20
-53.071516544741
 10
814.443169254495
 20
-53.071516544741
1001
ACAD
1000
TCW40_DEV_WIDTH
1002
{
1040
-3.0
1002
}
1001
TCAD
1000
TCW_CUSTOM_DATA
1002
{
1000
#$AUX@_ToolInfo Properties
1070
           8
1000
CMD_POLYLINE@
1002
}
  0
LWPOLYLINE
  5
3D
100
AcDbEntity
  8
0
  6
Continuous
 62
           7
100
AcDbPolyline
 90
        6
 70
         129
 10
-476.200828215074
 20
-53.071516544741
 10
-476.200828215074
 20
21.928483455259
 10
221.597608750019
 20
21.928483455259
 10
301.73511953032
 20
21.928483455259
 10
814.443169254495
 20
21.928483455259
 10
814.443169254495
 20
-53.071516544741
1001
ACAD
1000
TCW40_DEV_WIDTH
1002
{
1040
-3.0
1002
}
  0
HATCH
  5
3E
100
AcDbEntity
  8
0
  6
Continuous
 62
           7
100
AcDbHatch
 10
0.0
 20
0.0
 30
0.0
210
0.0
220
0.0
230
1.0
  2
CONCRETE
 70
           0
 71
           0
 91
        1
 92
        3
 72
           0
 73
           1
 93
        6
 10
-476.20082821507401
 20
-53.07151654474066
 10
-476.20082821507401
 20
21.928483455259272
 10
221.59760875001939
 20
21.928483455259205
 10
301.73511953032016
 20
21.928483455259187
 10
814.44316925449516
 20
21.928483455259151
 10
814.44316925449516
 20
-53.071516544740589
 97
        0
 75
           0
 76
           1
 52
0.0
 41
200.0
 77
           0
 78
          11
 53
135.0
 43
230.0
 44
80.0
 45
-199.96979771955563
 46
-199.96979771955557
 79
           2
 49
14.14
 49
-268.66
 53
105.0
 43
170.0
 44
100.0
 45
-115.91109915468823
 46
-31.058285412302499
 79
           2
 49
10.0
 49
-110.0
 53
0.0
 43
150.0
 44
150.0
 45
0.0
 46
200.0
 79
           2
 49
10.0
 49
-190.0
 53
90.0
 43
100.0
 44
200.0
 45
-200.0
 46
0.0000000000000122
 79
           2
 49
10.0
 49
-190.0
 53
40.0
 43
100.0
 44
80.0
 45
-64.278760968653927
 46
76.604444311897808
 79
           2
 49
11.2
 49
-88.8
 53
135.0
 43
30.0
 44
80.0
 45
-79.999996471644934
 46
-79.99999647164492
 79
           2
 49
14.14214
 49
-98.99494
 53
90.0
 43
30.0
 44
80.0
 45
-80.0
 46
80.0
 79
           2
 49
10.0
 49
-150.0
 53
0.0
 43
20.0
 44
90.0
 45
80.0
 46
80.0
 79
           2
 49
10.0
 49
-150.0
 53
45.0
 43
0.0
 44
0.0
 45
-79.99999647164492
 46
79.999996471644934
 79
           2
 49
14.14214
 49
-98.99494
 53
0.0
 43
0.0
 44
10.0
 45
80.0
 46
80.0
 79
           2
 49
10.0
 49
-150.0
 53
90.0
 43
0.0
 44
0.0
 45
-80.0
 46
80.0
 79
           2
 49
10.0
 49
-150.0
 98
        0
  0
LWPOLYLINE
  5
3F
100
AcDbEntity
  8
0
  6
Continuous
 62
           7
100
AcDbPolyline
 90
        3
 70
         128
 10
-476.200828215074
 20
21.928483455259
 10
-476.200828215074
 20
-127.908341668635
 10
814.443169254495
 20
-127.908341668636
1001
ACAD
1000
TCW40_DEV_WIDTH
1002
{
1040
-3.0
1002
}
1001
TCAD
1000
TCW_CUSTOM_DATA
1002
{
1000
#$AUX@_ToolInfo Properties
1070
           8
1000
CMD_POLYLINE@
1002
}
  0
LWPOLYLINE
  5
40
100
AcDbEntity
  8
0
  6
Continuous
 62
           7
100
AcDbPolyline
 90
        4
 70
         129
 10
-476.200828215074
 20
-127.908341668635
 10
-476.200828215074
 20
-53.071516544741
 10
814.443169254495
 20
-53.071516544741
 10
814.443169254495
 20
-127.908341668635
1001
ACAD
1000
TCW40_DEV_WIDTH
1002
{
1040
-3.0
1002
}
  0
HATCH
  5
41
100
AcDbEntity
  8
0
  6
Continuous
 62
           7
100
AcDbHatch
 10
0.0
 20
0.0
 30
0.0
210
0.0
220
0.0
230
1.0
  2
CONCRETE_2
 70
           0
 71
           0
 91
        1
 92
        3
 72
           0
 73
           1
 93
        4
 10
-476.20082821507413
 20
-127.90834166863516
 10
-476.20082821507407
 20
-53.071516544740803
 10
814.44316925449539
 20
-53.071516544740717
 10
814.44316925449493
 20
-127.90834166863525
 97
        0
 75
           0
 76
           1
 52
0.0
 41
200.0
 77
           0
 78
          11
 53
135.0
 43
230.0
 44
80.0
 45
-199.96979771955563
 46
-199.96979771955557
 79
           2
 49
14.14
 49
-268.66
 53
105.0
 43
170.0
 44
100.0
 45
-115.91109915468823
 46
-31.058285412302499
 79
           2
 49
10.0
 49
-110.0
 53
0.0
 43
150.0
 44
150.0
 45
0.0
 46
200.0
 79
           2
 49
10.0
 49
-190.0
 53
90.0
 43
100.0
 44
200.0
 45
-200.0
 46
0.0000000000000122
 79
           2
 49
10.0
 49
-190.0
 53
40.0
 43
100.0
 44
80.0
 45
-64.278760968653927
 46
76.604444311897808
 79
           2
 49
11.2
 49
-88.8
 53
135.0
 43
30.0
 44
80.0
 45
-79.999996471644934
 46
-79.99999647164492
 79
           2
 49
14.14214
 49
-98.99494
 53
90.0
 43
30.0
 44
80.0
 45
-80.0
 46
80.0
 79
           2
 49
10.0
 49
-150.0
 53
0.0
 43
20.0
 44
90.0
 45
80.0
 46
80.0
 79
           2
 49
10.0
 49
-150.0
 53
45.0
 43
0.0
 44
0.0
 45
-79.99999647164492
 46
79.999996471644934
 79
           2
 49
14.14214
 49
-98.99494
 53
0.0
 43
0.0
 44
10.0
 45
80.0
 46
80.0
 79
           2
 49
10.0
 49
-150.0
 53
90.0
 43
0.0
 44
0.0
 45
-80.0
 46
80.0
 79
           2
 49
10.0
 49
-150.0
 98
        0
  0
LINE
  5
42
100
AcDbEntity
  8
0
  6
Continuous
 62
           7
100
AcDbLine
 10
-772.552132397156
 20
-29.327298008263
 30
0.0
 11
-947.655792448233
 21
-29.327298008263
 31
0.0
1001
ACAD
1000
TCW40_DEV_WIDTH
1002
{
1040
-3.0
1002
}
1001
TCAD
1000
TCW_CUSTOM_DATA
1002
{
1000
#$AUX@_ToolInfo Properties
1070
           8
1000
CMD_LINE@
1002
}
  0
LINE
  5
43
100
AcDbEntity
  8
0
  6
Continuous
 62
           7
100
AcDbLine
 10
-672.200828215074
 20
-530.778791530374
 30
0.0
 11
-672.200828215074
 21
120.672701991737
 31
0.0
1001
ACAD
1000
TCW40_DEV_WIDTH
1002
{
1040
-3.0
1002
}
1001
TCAD
1000
TCW_CUSTOM_DATA
1002
{
1000
#$AUX@_ToolInfo Properties
1070
           8
1000
CMD_LINE@
1002
}
  0
LINE
  5
44
100
AcDbEntity
  8
0
  6
Continuous
 62
           7
100
AcDbLine
 10
-672.200828215074
 20
669.942451089095
 30
0.0
 11
-488.891921812347
 21
669.942451089095
 31
0.0
1001
ACAD
1000
TCW40_DEV_WIDTH
1002
{
1040
-3.0
1002
}
1001
TCAD
1000
TCW_CUSTOM_DATA
1002
{
1000
#$AUX@_ToolInfo Properties
1070
           8
1000
CMD_LINE@
1002
}
  0
LINE
  5
45
100
AcDbEntity
  8
0
  6
Continuous
 62
           7
100
AcDbLine
 10
-476.200828215074
 20
-228.071516544741
 30
0.0
 11
-476.200828215074
 21
-530.778791530374
 31
0.0
1001
ACAD
1000
TCW40_DEV_WIDTH
1002
{
1040
-3.0
1002
}
1001
TCAD
1000
TCW_CUSTOM_DATA
1002
{
1000
#$AUX@_ToolInfo Properties
1070
           8
1000
CMD_LINE@
1002
}
  0
LINE
  5
46
100
AcDbEntity
  8
0
  6
Continuous
 62
           7
100
AcDbLine
 10
-576.200828215074
 20
-530.778791530374
 30
0.0
 11
-476.200828215074
 21
-530.778791530374
 31
0.0
1001
ACAD
1000
TCW40_DEV_WIDTH
1002
{
1040
-3.0
1002
}
1001
TCAD
1000
TCW_CUSTOM_DATA
1002
{
1000
#$AUX@_ToolInfo Properties
1070
           8
1000
CMD_LINE@
1002
}
  0
LINE
  5
47
100
AcDbEntity
  8
0
  6
Continuous
 62
           7
100
AcDbLine
 10
-576.200828215074
 20
246.928483455259
 30
0.0
 11
-576.200828215074
 21
669.942451089095
 31
0.0
1001
ACAD
1000
TCW40_DEV_WIDTH
1002
{
1040
-3.0
1002
}
  0
LINE
  5
48
100
AcDbEntity
  8
0
  6
Continuous
 62
           7
100
AcDbLine
 10
-576.200828215074
 20
669.942451089095
 30
0.0
 11
-476.200828215074
 21
669.942451089095
 31
0.0
1001
ACAD
1000
TCW40_DEV_WIDTH
1002
{
1040
-3.0
1002
}
  0
LINE
  5
49
100
AcDbEntity
  8
0
  6
Continuous
 62
           7
100
AcDbLine
 10
-476.200828215074
 20
669.942451089095
 30
0.0
 11
-476.200828215074
 21
271.760906489457
 31
0.0
1001
ACAD
1000
TCW40_DEV_WIDTH
1002
{
1040
-3.0
1002
}
  0
HATCH
  5
4A
100
AcDbEntity
  8
0
  6
Continuous
 62
           7
100
AcDbHatch
 10
0.0
 20
0.0
 30
0.0
210
0.0
220
0.0
230
1.0
  2
ANSI32
 70
           0
 71
           0
 91
        1
 92
        3
 72
           0
 73
           1
 93
        6
 10
-576.2008282150739
 20
246.92848345525911
 10
-576.2008282150739
 20
669.94245108909513
 10
-476.2008282150739
 20
669.94245108909513
 10
-476.2008282150739
 20
271.760906489457
 10
-476.34231806888522
 20
271.760906489457
 10
-476.34231806888522
 20
246.92848345525911
 97
        0
 75
           0
 76
           1
 52
0.0
 41
200.0
 77
           0
 78
           2
 53
45.0
 43
35.355339
 44
0.0
 45
-53.033008588991059
 46
53.033008588991073
 79
           1
 49
200.0
 53
45.0
 43
0.0
 44
0.0
 45
-53.033008588991059
 46
53.033008588991073
 79
           1
 49
200.0
 98
        0
  0
LINE
  5
4B
100
AcDbEntity
  8
0
  6
Continuous
 62
           7
100
AcDbLine
 10
-578.316343854685
 20
96.928483455259
 30
0.0
 11
-476.200828215074
 21
96.928483455259
 31
0.0
1001
ACAD
1000
TCW40_DEV_WIDTH
1002
{
1040
-3.0
1002
}
1001
TCAD
1000
TCW_CUSTOM_DATA
1002
{
1000
#$AUX@_ToolInfo Properties
1070
           8
1000
CMD_LINE@
1002
}
  0
LWPOLYLINE
  5
4C
100
AcDbEntity
  8
0
  6
Continuous
 62
           7
100
AcDbPolyline
 90
        5
 70
         129
 10
-772.200828215074
 20
-530.778791530374
 10
-772.200828215074
 20
171.928483455259
 10
-672.200828215074
 20
171.928483455259
 10
-672.200828215074
 20
-0.534771643475
 10
-672.200828215074
 20
-530.778791530374
1001
ACAD
1000
TCW40_DEV_WIDTH
1002
{
1040
-3.0
1002
}
  0
HATCH
  5
4D
100
AcDbEntity
  8
0
  6
Continuous
 62
           7
100
AcDbHatch
 10
0.0
 20
0.0
 30
0.0
210
0.0
220
0.0
230
1.0
  2
ANSI37
 70
           0
 71
           0
 91
        1
 92
        3
 72
           0
 73
           1
 93
        5
 10
-772.2008282150739
 20
-530.77879153037406
 10
-772.2008282150739
 20
171.92848345525908
 10
-672.2008282150739
 20
171.92848345525908
 10
-672.2008282150739
 20
-0.5347716434748762
 10
-672.20082821507401
 20
-530.77879153037406
 97
        0
 75
           0
 76
           1
 52
0.0
 41
200.0
 77
           0
 78
           2
 53
135.0
 43
0.0
 44
0.0
 45
-17.677669529663689
 46
-17.677669529663685
 79
           1
 49
200.0
 53
45.0
 43
0.0
 44
0.0
 45
-17.677669529663685
 46
17.677669529663689
 79
           1
 49
200.0
 98
        0
  0
LWPOLYLINE
  5
4E
100
AcDbEntity
  8
0
  6
Continuous
 62
           7
100
AcDbPolyline
 90
        4
 70
         129
 10
-772.200828215074
 20
246.928483455259
 10
-772.200828215074
 20
669.942451089095
 10
-672.200828215074
 20
669.942451089095
 10
-672.200828215074
 20
246.928483455259
1001
ACAD
1000
TCW40_DEV_WIDTH
1002
{
1040
-3.0
1002
}
  0
HATCH
  5
4F
100
AcDbEntity
  8
0
  6
Continuous
 62
           7
100
AcDbHatch
 10
0.0
 20
0.0
 30
0.0
210
0.0
220
0.0
230
1.0
  2
ANSI37
 70
           0
 71
           0
 91
        1
 92
        3
 72
           0
 73
           1
 93
        4
 10
-772.2008282150739
 20
246.92848345525897
 10
-772.2008282150739
 20
669.9424510890949
 10
-672.2008282150739
 20
669.9424510890949
 10
-672.2008282150739
 20
246.928483455259
 97
        0
 75
           0
 76
           1
 52
0.0
 41
200.0
 77
           0
 78
           2
 53
135.0
 43
0.0
 44
0.0
 45
-17.677669529663689
 46
-17.677669529663685
 79
           1
 49
200.0
 53
45.0
 43
0.0
 44
0.0
 45
-17.677669529663685
 46
17.677669529663689
 79
           1
 49
200.0
 98
        0
  0
LINE
  5
50
100
AcDbEntity
  8
0
  6
Continuous
 62
           7
100
AcDbLine
 10
-576.200828215074
 20
96.928483455259
 30
0.0
 11
-576.200828215074
 21
246.928483455259
 31
0.0
1001
ACAD
1000
TCW40_DEV_WIDTH
1002
{
1040
-3.0
1002
}
  0
LINE
  5
51
100
AcDbEntity
  8
0
  6
Continuous
 62
           7
100
AcDbLine
 10
-476.200828215074
 20
246.928483455259
 30
0.0
 11
-476.200828215074
 21
146.928483455259
 31
0.0
1001
ACAD
1000
TCW40_DEV_WIDTH
1002
{
1040
-3.0
1002
}
  0
LINE
  5
52
100
AcDbEntity
  8
0
  6
Continuous
 62
           7
100
AcDbLine
 10
-476.200828215074
 20
146.928483455259
 30
0.0
 11
-476.200828215074
 21
96.928483455259
 31
0.0
1001
ACAD
1000
TCW40_DEV_WIDTH
1002
{
1040
-3.0
1002
}
  0
LINE
  5
53
100
AcDbEntity
  8
0
  6
Continuous
 62
           7
100
AcDbLine
 10
-476.200828215074
 20
96.928483455259
 30
0.0
 11
-576.200828215074
 21
96.928483455259
 31
0.0
1001
ACAD
1000
TCW40_DEV_WIDTH
1002
{
1040
-3.0
1002
}
  0
HATCH
  5
54
100
AcDbEntity
  8
0
  6
Continuous
 62
           7
100
AcDbHatch
 10
0.0
 20
0.0
 30
0.0
210
0.0
220
0.0
230
1.0
  2
ANSI32
 70
           0
 71
           0
 91
        1
 92
        3
 72
           0
 73
           1
 93
        6
 10
-576.2008282150739
 20
96.928483455259425
 10
-576.2008282150739
 20
246.92848345525911
 10
-476.34231806888522
 20
246.92848345525917
 10
-476.2008282150739
 20
246.92848345525917
 10
-476.2008282150739
 20
146.92848345525917
 10
-476.2008282150739
 20
96.928483455259283
 97
        0
 75
           0
 76
           1
 52
0.0
 41
200.0
 77
           0
 78
           2
 53
45.0
 43
35.355339
 44
0.0
 45
-53.033008588991059
 46
53.033008588991073
 79
           1
 49
200.0
 53
45.0
 43
0.0
 44
0.0
 45
-53.033008588991059
 46
53.033008588991073
 79
           1
 49
200.0
 98
        0
  0
LWPOLYLINE
  5
55
100
AcDbEntity
  8
0
  6
Continuous
 62
           7
100
AcDbPolyline
 90
        4
 70
         129
 10
-621.200828215074
 20
246.928483455259
 10
-621.200828215074
 20
669.942451089095
 10
-576.200828215074
 20
669.942451089095
 10
-576.200828215074
 20
246.928483455259
1001
ACAD
1000
TCW40_DEV_WIDTH
1002
{
1040
-3.0
1002
}
  0
LINE
  5
56
100
AcDbEntity
  8
0
  6
Continuous
 62
           7
100
AcDbLine
 10
-476.200828215074
 20
21.928483455259
 30
0.0
 11
-672.200828215074
 21
21.928483455259
 31
0.0
1001
ACAD
1000
TCW40_DEV_WIDTH
1002
{
1040
-3.0
1002
}
1001
TCAD
1000
TCW_CUSTOM_DATA
1002
{
1000
#$AUX@_ToolInfo Properties
1070
           8
1000
CMD_LINE@
1002
}
  0
LWPOLYLINE
  5
57
100
AcDbEntity
  8
0
  6
Continuous
 62
           7
100
AcDbPolyline
 90
        6
 70
         129
 10
-576.200828215074
 20
-530.778791530374
 10
-576.200828215074
 20
21.928483455259
 10
-476.200828215073
 20
21.928483455259
 10
-476.200828215073
 20
-78.071516544741
 10
-476.200828215074
 20
-228.071516544741
 10
-476.200828215074
 20
-530.778791530374
1001
ACAD
1000
TCW40_DEV_WIDTH
1002
{
1040
-3.0
1002
}
  0
HATCH
  5
58
100
AcDbEntity
  8
0
  6
Continuous
 62
           7
100
AcDbHatch
 10
0.0
 20
0.0
 30
0.0
210
0.0
220
0.0
230
1.0
  2
ANSI32
 70
           0
 71
           0
 91
        1
 92
        3
 72
           0
 73
           1
 93
        6
 10
-576.2008282150739
 20
-530.77879153037418
 10
-576.2008282150739
 20
21.928483455259293
 10
-476.20082821507322
 20
21.928483455259283
 10
-476.20082821507339
 20
-78.071516544740703
 10
-476.20082821507356
 20
-228.07151654474083
 10
-476.2008282150739
 20
-530.77879153037418
 97
        0
 75
           0
 76
           1
 52
0.0
 41
200.0
 77
           0
 78
           2
 53
45.0
 43
35.355339
 44
0.0
 45
-53.033008588991059
 46
53.033008588991073
 79
           1
 49
200.0
 53
45.0
 43
0.0
 44
0.0
 45
-53.033008588991059
 46
53.033008588991073
 79
           1
 49
200.0
 98
        0
  0
LWPOLYLINE
  5
59
100
AcDbEntity
  8
0
  6
Continuous
 62
           7
100
AcDbPolyline
 90
        3
 70
         128
 10
-671.709133548979
 20
246.929539167553
 10
-671.709133548979
 20
246.929539167553
 10
-672.200828215074
 20
246.929539167553
1001
ACAD
1000
TCW40_DEV_WIDTH
1002
{
1040
-3.0
1002
}
  0
LINE
  5
5A
100
AcDbEntity
  8
0
  6
Continuous
 62
           7
100
AcDbLine
 10
-772.200828215074
 20
-530.778791530374
 30
0.0
 11
-772.200828215074
 21
171.928483455259
 31
0.0
1001
ACAD
1000
TCW40_DEV_WIDTH
1002
{
1040
-3.0
1002
}
  0
LINE
  5
5B
100
AcDbEntity
  8
0
  6
Continuous
 62
           7
100
AcDbLine
 10
-772.200828215074
 20
246.928483455259
 30
0.0
 11
-772.200828215074
 21
269.221208469626
 31
0.0
1001
ACAD
1000
TCW40_DEV_WIDTH
1002
{
1040
-3.0
1002
}
  0
LWPOLYLINE
  5
5C
100
AcDbEntity
  8
0
  6
Continuous
 62
           7
100
AcDbPolyline
 90
        3
 70
         128
 10
-772.200828215074
 20
246.929539167553
 10
-772.200828215074
 20
246.929539167553
 10
-772.200828215074
 20
246.928483455259
1001
ACAD
1000
TCW40_DEV_WIDTH
1002
{
1040
-3.0
1002
}
  0
LWPOLYLINE
  5
5D
100
AcDbEntity
  8
0
  6
Continuous
 62
           7
100
AcDbPolyline
 90
        3
 70
         128
 10
-772.200828215074
 20
171.928483455259
 10
-772.200828215074
 20
171.928483455259
 10
-738.25093136842
 20
171.928483455259
1001
ACAD
1000
TCW40_DEV_WIDTH
1002
{
1040
-3.0
1002
}
  0
LWPOLYLINE
  5
5E
100
AcDbEntity
  8
0
  6
Continuous
 62
           7
100
AcDbPolyline
 90
        4
 70
         128
 10
-672.200828215074
 20
171.928483455259
 10
-672.200828215074
 20
-530.778791530374
 10
-772.200828215074
 20
-530.778791530374
 10
-772.200828215074
 20
171.928483455259
1001
ACAD
1000
TCW40_DEV_WIDTH
1002
{
1040
-3.0
1002
}
  0
LWPOLYLINE
  5
5F
100
AcDbEntity
  8
0
  6
Continuous
 62
           7
100
AcDbPolyline
 90
        4
 70
         128
 10
-772.200828215074
 20
246.928483455259
 10
-772.200828215074
 20
669.942451089095
 10
-672.200828215074
 20
669.942451089095
 10
-672.200828215074
 20
246.928483455259
1001
ACAD
1000
TCW40_DEV_WIDTH
1002
{
1040
-3.0
1002
}
  0
LINE
  5
60
100
AcDbEntity
  8
0
  6
Continuous
 62
           7
100
AcDbLine
 10
-476.200828215073
 20
21.928483455259
 30
0.0
 11
-476.200828215073
 21
21.928483455259
 31
0.0
1001
ACAD
1000
TCW40_DEV_WIDTH
1002
{
1040
-3.0
1002
}
1001
TCAD
1000
TCW_CUSTOM_DATA
1002
{
1000
#$AUX@_ToolInfo Properties
1070
           8
1000
CMD_LINE@
1002
}
  0
LINE
  5
61
100
AcDbEntity
  8
0
  6
Continuous
 62
           7
100
AcDbLine
 10
-576.200828215074
 20
96.928483455259
 30
0.0
 11
-576.200828215074
 21
269.221208469626
 31
0.0
1001
ACAD
1000
TCW40_DEV_WIDTH
1002
{
1040
-3.0
1002
}
1001
TCAD
1000
TCW_CUSTOM_DATA
1002
{
1000
#$AUX@_ToolInfo Properties
1070
           8
1000
CMD_LINE@
1002
}
  0
LWPOLYLINE
  5
62
100
AcDbEntity
  8
0
  6
Continuous
 62
           7
100
AcDbPolyline
 90
        5
 70
         128
 10
-772.200828215074
 20
246.929539167553
 10
-671.709133548979
 20
246.929539167553
 10
-576.200828215074
 20
246.929539167553
 10
-576.200828215074
 20
434.310666722842
 10
-476.200828215074
 20
434.310666722842
1001
ACAD
1000
TCW40_DEV_WIDTH
1002
{
1040
-3.0
1002
}
1001
TCAD
1000
TCW_CUSTOM_DATA
1002
{
1000
#$AUX@_ToolInfo Properties
1070
           8
1000
CMD_POLYLINE@
1002
}
  0
POLYLINE
  5
63
100
AcDbEntity
  8
0
  6
Continuous
 62
           7
100
AcDb2dPolyline
 66
           1
 10
0.0
 20
0.0
 30
0.0
 70
         132
 75
           6
1001
ACAD
1000
TCW40_DEV_WIDTH
1002
{
1040
-3.0
1002
}
1001
TCAD
1000
TCW_CUSTOM_DATA
1002
{
1000
#$AUX@_ToolInfo Properties
1070
           8
1000
CMD_SPLINE@
1002
}
  0
VERTEX
  5
64
100
AcDbEntity
  8
0
  6
Continuous
 62
           7
100
AcDbVertex
100
AcDb2dVertex
 10
-421.023224352967
 20
85.718180050821
 30
0.0
 70
          16
  0
VERTEX
  5
65
100
AcDbEntity
  8
0
  6
Continuous
 62
           7
100
AcDbVertex
100
AcDb2dVertex
 10
-596.057192795407
 20
51.740738421774
 30
0.0
 70
          16
  0
VERTEX
  5
66
100
AcDbEntity
  8
0
  6
Continuous
 62
           7
100
AcDbVertex
100
AcDb2dVertex
 10
-618.244597245857
 20
54.257585949852
 30
0.0
 70
          16
  0
VERTEX
  5
67
100
AcDbEntity
  8
0
  6
Continuous
 62
           7
100
AcDbVertex
100
AcDb2dVertex
 10
-624.40776514876
 20
146.122520724682
 30
0.0
 70
          16
  0
VERTEX
  5
68
100
AcDbEntity
  8
0
  6
Continuous
 62
           7
100
AcDbVertex
100
AcDb2dVertex
 10
-620.709864407018
 20
209.04370892662
 30
0.0
 70
          16
  0
VERTEX
  5
69
100
AcDbEntity
  8
0
  6
Continuous
 62
           7
100
AcDbVertex
100
AcDb2dVertex
 10
-636.734100954566
 20
226.661641623163
 30
0.0
 70
          16
  0
VERTEX
  5
6A
100
AcDbEntity
  8
0
  6
Continuous
 62
           7
100
AcDbVertex
100
AcDb2dVertex
 10
-815.465970138748
 20
210.302132690659
 30
0.0
 70
          16
  0
VERTEX
  5
6B
100
AcDbEntity
  8
0
  6
Continuous
 62
           7
100
AcDbVertex
100
AcDb2dVertex
 10
-821.629138041651
 20
210.302132690659
 30
0.0
 70
          16
  0
VERTEX
  5
6C
100
AcDbEntity
  8
0
  6
Continuous
 62
           7
100
AcDbVertex
100
AcDb2dVertex
 10
-421.023224352967
 20
85.718180050821
 30
0.0
 70
           8
  0
VERTEX
  5
6D
100
AcDbEntity
  8
0
  6
Continuous
 62
           7
100
AcDbVertex
100
AcDb2dVertex
 10
-446.068695198923
 20
80.883263515061
 30
0.0
 70
           8
  0
VERTEX
  5
6E
100
AcDbEntity
  8
0
  6
Continuous
 62
           7
100
AcDbVertex
100
AcDb2dVertex
 10
-468.774627508937
 20
76.561469269087
 30
0.0
 70
           8
  0
VERTEX
  5
6F
100
AcDbEntity
  8
0
  6
Continuous
 62
           7
100
AcDbVertex
100
AcDb2dVertex
 10
-489.260586740326
 20
72.737381621791
 30
0.0
 70
           8
  0
VERTEX
  5
70
100
AcDbEntity
  8
0
  6
Continuous
 62
           7
100
AcDbVertex
100
AcDb2dVertex
 10
-507.646138350406
 20
69.395584882062
 30
0.0
 70
           8
  0
VERTEX
  5
71
100
AcDbEntity
  8
0
  6
Continuous
 62
           7
100
AcDbVertex
100
AcDb2dVertex
 10
-524.050847796492
 20
66.520663358792
 30
0.0
 70
           8
  0
VERTEX
  5
72
100
AcDbEntity
  8
0
  6
Continuous
 62
           7
100
AcDbVertex
100
AcDb2dVertex
 10
-538.594280535902
 20
64.097201360871
 30
0.0
 70
           8
  0
VERTEX
  5
73
100
AcDbEntity
  8
0
  6
Continuous
 62
           7
100
AcDbVertex
100
AcDb2dVertex
 10
-551.396002025952
 20
62.109783197189
 30
0.0
 70
           8
  0
VERTEX
  5
74
100
AcDbEntity
  8
0
  6
Continuous
 62
           7
100
AcDbVertex
100
AcDb2dVertex
 10
-562.575577723957
 20
60.542993176637
 30
0.0
 70
           8
  0
VERTEX
  5
75
100
AcDbEntity
  8
0
  6
Continuous
 62
           7
100
AcDbVertex
100
AcDb2dVertex
 10
-572.252573087235
 20
59.381415608106
 30
0.0
 70
           8
  0
VERTEX
  5
76
100
AcDbEntity
  8
0
  6
Continuous
 62
           7
100
AcDbVertex
100
AcDb2dVertex
 10
-580.546553573102
 20
58.609634800486
 30
0.0
 70
           8
  0
VERTEX
  5
77
100
AcDbEntity
  8
0
  6
Continuous
 62
           7
100
AcDbVertex
100
AcDb2dVertex
 10
-587.577084638873
 20
58.212235062667
 30
0.0
 70
           8
  0
VERTEX
  5
78
100
AcDbEntity
  8
0
  6
Continuous
 62
           7
100
AcDbVertex
100
AcDb2dVertex
 10
-593.463731741866
 20
58.17380070354
 30
0.0
 70
           8
  0
VERTEX
  5
79
100
AcDbEntity
  8
0
  6
Continuous
 62
           7
100
AcDbVertex
100
AcDb2dVertex
 10
-598.326060339396
 20
58.478916031996
 30
0.0
 70
           8
  0
VERTEX
  5
7A
100
AcDbEntity
  8
0
  6
Continuous
 62
           7
100
AcDbVertex
100
AcDb2dVertex
 10
-602.28363588878
 20
59.112165356925
 30
0.0
 70
           8
  0
VERTEX
  5
7B
100
AcDbEntity
  8
0
  6
Continuous
 62
           7
100
AcDbVertex
100
AcDb2dVertex
 10
-605.456023847334
 20
60.058132987218
 30
0.0
 70
           8
  0
VERTEX
  5
7C
100
AcDbEntity
  8
0
  6
Continuous
 62
           7
100
AcDbVertex
100
AcDb2dVertex
 10
-607.962789672375
 20
61.301403231765
 30
0.0
 70
           8
  0
VERTEX
  5
7D
100
AcDbEntity
  8
0
  6
Continuous
 62
           7
100
AcDbVertex
100
AcDb2dVertex
 10
-609.923498821218
 20
62.826560399456
 30
0.0
 70
           8
  0
VERTEX
  5
7E
100
AcDbEntity
  8
0
  6
Continuous
 62
           7
100
AcDbVertex
100
AcDb2dVertex
 10
-611.457716751181
 20
64.618188799183
 30
0.0
 70
           8
  0
VERTEX
  5
7F
100
AcDbEntity
  8
0
  6
Continuous
 62
           7
100
AcDbVertex
100
AcDb2dVertex
 10
-612.685008919579
 20
66.660872739835
 30
0.0
 70
           8
  0
VERTEX
  5
80
100
AcDbEntity
  8
0
  6
Continuous
 62
           7
100
AcDbVertex
100
AcDb2dVertex
 10
-613.724940783729
 20
68.939196530304
 30
0.0
 70
           8
  0
VERTEX
  5
81
100
AcDbEntity
  8
0
  6
Continuous
 62
           7
100
AcDbVertex
100
AcDb2dVertex
 10
-614.677509742855
 20
71.437875565288
 30
0.0
 70
           8
  0
VERTEX
  5
82
100
AcDbEntity
  8
0
  6
Continuous
 62
           7
100
AcDbVertex
100
AcDb2dVertex
 10
-615.564440963815
 20
74.142149582722
 30
0.0
 70
           8
  0
VERTEX
  5
83
100
AcDbEntity
  8
0
  6
Continuous
 62
           7
100
AcDbVertex
100
AcDb2dVertex
 10
-616.387891555375
 20
77.037389406349
 30
0.0
 70
           8
  0
VERTEX
  5
84
100
AcDbEntity
  8
0
  6
Continuous
 62
           7
100
AcDbVertex
100
AcDb2dVertex
 10
-617.150018626302
 20
80.108965859912
 30
0.0
 70
           8
  0
VERTEX
  5
85
100
AcDbEntity
  8
0
  6
Continuous
 62
           7
100
AcDbVertex
100
AcDb2dVertex
 10
-617.85297928536
 20
83.342249767154
 30
0.0
 70
           8
  0
VERTEX
  5
86
100
AcDbEntity
  8
0
  6
Continuous
 62
           7
100
AcDbVertex
100
AcDb2dVertex
 10
-618.498930641317
 20
86.722611951818
 30
0.0
 70
           8
  0
VERTEX
  5
87
100
AcDbEntity
  8
0
  6
Continuous
 62
           7
100
AcDbVertex
100
AcDb2dVertex
 10
-619.090029802938
 20
90.235423237647
 30
0.0
 70
           8
  0
VERTEX
  5
88
100
AcDbEntity
  8
0
  6
Continuous
 62
           7
100
AcDbVertex
100
AcDb2dVertex
 10
-619.628433878989
 20
93.866054448384
 30
0.0
 70
           8
  0
VERTEX
  5
89
100
AcDbEntity
  8
0
  6
Continuous
 62
           7
100
AcDbVertex
100
AcDb2dVertex
 10
-620.116299978236
 20
97.599876407772
 30
0.0
 70
           8
  0
VERTEX
  5
8A
100
AcDbEntity
  8
0
  6
Continuous
 62
           7
100
AcDbVertex
100
AcDb2dVertex
 10
-620.555785209446
 20
101.422259939555
 30
0.0
 70
           8
  0
VERTEX
  5
8B
100
AcDbEntity
  8
0
  6
Continuous
 62
           7
100
AcDbVertex
100
AcDb2dVertex
 10
-620.949046681384
 20
105.318575867475
 30
0.0
 70
           8
  0
VERTEX
  5
8C
100
AcDbEntity
  8
0
  6
Continuous
 62
           7
100
AcDbVertex
100
AcDb2dVertex
 10
-621.298241502815
 20
109.274195015275
 30
0.0
 70
           8
  0
VERTEX
  5
8D
100
AcDbEntity
  8
0
  6
Continuous
 62
           7
100
AcDbVertex
100
AcDb2dVertex
 10
-621.605526782508
 20
113.274488206698
 30
0.0
 70
           8
  0
VERTEX
  5
8E
100
AcDbEntity
  8
0
  6
Continuous
 62
           7
100
AcDbVertex
100
AcDb2dVertex
 10
-621.873059629226
 20
117.304826265488
 30
0.0
 70
           8
  0
VERTEX
  5
8F
100
AcDbEntity
  8
0
  6
Continuous
 62
           7
100
AcDbVertex
100
AcDb2dVertex
 10
-622.102997151737
 20
121.350580015388
 30
0.0
 70
           8
  0
VERTEX
  5
90
100
AcDbEntity
  8
0
  6
Continuous
 62
           7
100
AcDbVertex
100
AcDb2dVertex
 10
-622.297496458806
 20
125.397120280139
 30
0.0
 70
           8
  0
VERTEX
  5
91
100
AcDbEntity
  8
0
  6
Continuous
 62
           7
100
AcDbVertex
100
AcDb2dVertex
 10
-622.458714659199
 20
129.429817883487
 30
0.0
 70
           8
  0
VERTEX
  5
92
100
AcDbEntity
  8
0
  6
Continuous
 62
           7
100
AcDbVertex
100
AcDb2dVertex
 10
-622.588808861683
 20
133.434043649173
 30
0.0
 70
           8
  0
VERTEX
  5
93
100
AcDbEntity
  8
0
  6
Continuous
 62
           7
100
AcDbVertex
100
AcDb2dVertex
 10
-622.689936175023
 20
137.395168400941
 30
0.0
 70
           8
  0
VERTEX
  5
94
100
AcDbEntity
  8
0
  6
Continuous
 62
           7
100
AcDbVertex
100
AcDb2dVertex
 10
-622.764253707986
 20
141.298562962533
 30
0.0
 70
           8
  0
VERTEX
  5
95
100
AcDbEntity
  8
0
  6
Continuous
 62
           7
100
AcDbVertex
100
AcDb2dVertex
 10
-622.814175368
 20
145.131695530634
 30
0.0
 70
           8
  0
VERTEX
  5
96
100
AcDbEntity
  8
0
  6
Continuous
 62
           7
100
AcDbVertex
100
AcDb2dVertex
 10
-622.843142257143
 20
148.890423793685
 30
0.0
 70
           8
  0
VERTEX
  5
97
100
AcDbEntity
  8
0
  6
Continuous
 62
           7
100
AcDbVertex
100
AcDb2dVertex
 10
-622.854852276159
 20
152.572702813071
 30
0.0
 70
           8
  0
VERTEX
  5
98
100
AcDbEntity
  8
0
  6
Continuous
 62
           7
100
AcDbVertex
100
AcDb2dVertex
 10
-622.853003325788
 20
156.176487650176
 30
0.0
 70
           8
  0
VERTEX
  5
99
100
AcDbEntity
  8
0
  6
Continuous
 62
           7
100
AcDbVertex
100
AcDb2dVertex
 10
-622.841293306772
 20
159.699733366381
 30
0.0
 70
           8
  0
VERTEX
  5
9A
100
AcDbEntity
  8
0
  6
Continuous
 62
           7
100
AcDbVertex
100
AcDb2dVertex
 10
-622.823420119854
 20
163.140395023072
 30
0.0
 70
           8
  0
VERTEX
  5
9B
100
AcDbEntity
  8
0
  6
Continuous
 62
           7
100
AcDbVertex
100
AcDb2dVertex
 10
-622.803081665774
 20
166.496427681631
 30
0.0
 70
           8
  0
VERTEX
  5
9C
100
AcDbEntity
  8
0
  6
Continuous
 62
           7
100
AcDbVertex
100
AcDb2dVertex
 10
-622.783975845275
 20
169.765786403442
 30
0.0
 70
           8
  0
VERTEX
  5
9D
100
AcDbEntity
  8
0
  6
Continuous
 62
           7
100
AcDbVertex
100
AcDb2dVertex
 10
-622.769800559099
 20
172.946426249889
 30
0.0
 70
           8
  0
VERTEX
  5
9E
100
AcDbEntity
  8
0
  6
Continuous
 62
           7
100
AcDbVertex
100
AcDb2dVertex
 10
-622.764253707986
 20
176.036302282353
 30
0.0
 70
           8
  0
VERTEX
  5
9F
100
AcDbEntity
  8
0
  6
Continuous
 62
           7
100
AcDbVertex
100
AcDb2dVertex
 10
-622.771033192679
 20
179.033369562221
 30
0.0
 70
           8
  0
VERTEX
  5
A0
100
AcDbEntity
  8
0
  6
Continuous
 62
           7
100
AcDbVertex
100
AcDb2dVertex
 10
-622.79383691392
 20
181.935583150873
 30
0.0
 70
           8
  0
VERTEX
  5
A1
100
AcDbEntity
  8
0
  6
Continuous
 62
           7
100
AcDbVertex
100
AcDb2dVertex
 10
-622.83636277245
 20
184.740898109695
 30
0.0
 70
           8
  0
VERTEX
  5
A2
100
AcDbEntity
  8
0
  6
Continuous
 62
           7
100
AcDbVertex
100
AcDb2dVertex
 10
-622.902308669011
 20
187.447269500069
 30
0.0
 70
           8
  0
VERTEX
  5
A3
100
AcDbEntity
  8
0
  6
Continuous
 62
           7
100
AcDbVertex
100
AcDb2dVertex
 10
-622.995372504345
 20
190.052652383379
 30
0.0
 70
           8
  0
VERTEX
  5
A4
100
AcDbEntity
  8
0
  6
Continuous
 62
           7
100
AcDbVertex
100
AcDb2dVertex
 10
-623.119252179193
 20
192.555001821008
 30
0.0
 70
           8
  0
VERTEX
  5
A5
100
AcDbEntity
  8
0
  6
Continuous
 62
           7
100
AcDbVertex
100
AcDb2dVertex
 10
-623.277645594298
 20
194.95227287434
 30
0.0
 70
           8
  0
VERTEX
  5
A6
100
AcDbEntity
  8
0
  6
Continuous
 62
           7
100
AcDbVertex
100
AcDb2dVertex
 10
-623.4742506504
 20
197.242420604759
 30
0.0
 70
           8
  0
VERTEX
  5
A7
100
AcDbEntity
  8
0
  6
Continuous
 62
           7
100
AcDbVertex
100
AcDb2dVertex
 10
-623.712765248243
 20
199.423400073647
 30
0.0
 70
           8
  0
VERTEX
  5
A8
100
AcDbEntity
  8
0
  6
Continuous
 62
           7
100
AcDbVertex
100
AcDb2dVertex
 10
-623.996887288567
 20
201.493166342388
 30
0.0
 70
           8
  0
VERTEX
  5
A9
100
AcDbEntity
  8
0
  6
Continuous
 62
           7
100
AcDbVertex
100
AcDb2dVertex
 10
-624.334539010114
 20
203.450080838372
 30
0.0
 70
           8
  0
VERTEX
  5
AA
100
AcDbEntity
  8
0
  6
Continuous
 62
           7
100
AcDbVertex
100
AcDb2dVertex
 10
-624.750540003627
 20
205.29413045302
 30
0.0
 70
           8
  0
VERTEX
  5
AB
100
AcDbEntity
  8
0
  6
Continuous
 62
           7
100
AcDbVertex
100
AcDb2dVertex
 10
-625.273934197847
 20
207.025708443756
 30
0.0
 70
           8
  0
VERTEX
  5
AC
100
AcDbEntity
  8
0
  6
Continuous
 62
           7
100
AcDbVertex
100
AcDb2dVertex
 10
-625.933765521519
 20
208.645208068008
 30
0.0
 70
           8
  0
VERTEX
  5
AD
100
AcDbEntity
  8
0
  6
Continuous
 62
           7
100
AcDbVertex
100
AcDb2dVertex
 10
-626.759077903383
 20
210.153022583201
 30
0.0
 70
           8
  0
VERTEX
  5
AE
100
AcDbEntity
  8
0
  6
Continuous
 62
           7
100
AcDbVertex
100
AcDb2dVertex
 10
-627.778915272183
 20
211.549545246763
 30
0.0
 70
           8
  0
VERTEX
  5
AF
100
AcDbEntity
  8
0
  6
Continuous
 62
           7
100
AcDbVertex
100
AcDb2dVertex
 10
-629.02232155666
 20
212.835169316118
 30
0.0
 70
           8
  0
VERTEX
  5
B0
100
AcDbEntity
  8
0
  6
Continuous
 62
           7
100
AcDbVertex
100
AcDb2dVertex
 10
-630.518340685558
 20
214.010288048693
 30
0.0
 70
           8
  0
VERTEX
  5
B1
100
AcDbEntity
  8
0
  6
Continuous
 62
           7
100
AcDbVertex
100
AcDb2dVertex
 10
-632.296016587619
 20
215.075294701916
 30
0.0
 70
           8
  0
VERTEX
  5
B2
100
AcDbEntity
  8
0
  6
Continuous
 62
           7
100
AcDbVertex
100
AcDb2dVertex
 10
-634.384393191584
 20
216.030582533211
 30
0.0
 70
           8
  0
VERTEX
  5
B3
100
AcDbEntity
  8
0
  6
Continuous
 62
           7
100
AcDbVertex
100
AcDb2dVertex
 10
-636.812514426197
 20
216.876544800005
 30
0.0
 70
           8
  0
VERTEX
  5
B4
100
AcDbEntity
  8
0
  6
Continuous
 62
           7
100
AcDbVertex
100
AcDb2dVertex
 10
-639.6094242202
 20
217.613574759724
 30
0.0
 70
           8
  0
VERTEX
  5
B5
100
AcDbEntity
  8
0
  6
Continuous
 62
           7
100
AcDbVertex
100
AcDb2dVertex
 10
-642.804166502336
 20
218.242065669796
 30
0.0
 70
           8
  0
VERTEX
  5
B6
100
AcDbEntity
  8
0
  6
Continuous
 62
           7
100
AcDbVertex
100
AcDb2dVertex
 10
-646.425785201346
 20
218.762410787645
 30
0.0
 70
           8
  0
VERTEX
  5
B7
100
AcDbEntity
  8
0
  6
Continuous
 62
           7
100
AcDbVertex
100
AcDb2dVertex
 10
-650.503324245973
 20
219.175003370698
 30
0.0
 70
           8
  0
VERTEX
  5
B8
100
AcDbEntity
  8
0
  6
Continuous
 62
           7
100
AcDbVertex
100
AcDb2dVertex
 10
-655.06582756496
 20
219.480236676382
 30
0.0
 70
           8
  0
VERTEX
  5
B9
100
AcDbEntity
  8
0
  6
Continuous
 62
           7
100
AcDbVertex
100
AcDb2dVertex
 10
-660.142339087049
 20
219.678503962122
 30
0.0
 70
           8
  0
VERTEX
  5
BA
100
AcDbEntity
  8
0
  6
Continuous
 62
           7
100
AcDbVertex
100
AcDb2dVertex
 10
-665.761902740983
 20
219.770198485346
 30
0.0
 70
           8
  0
VERTEX
  5
BB
100
AcDbEntity
  8
0
  6
Continuous
 62
           7
100
AcDbVertex
100
AcDb2dVertex
 10
-671.953562455504
 20
219.755713503478
 30
0.0
 70
           8
  0
VERTEX
  5
BC
100
AcDbEntity
  8
0
  6
Continuous
 62
           7
100
AcDbVertex
100
AcDb2dVertex
 10
-678.746362159353
 20
219.635442273947
 30
0.0
 70
           8
  0
VERTEX
  5
BD
100
AcDbEntity
  8
0
  6
Continuous
 62
           7
100
AcDbVertex
100
AcDb2dVertex
 10
-686.148853247998
 20
219.411613255499
 30
0.0
 70
           8
  0
VERTEX
  5
BE
100
AcDbEntity
  8
0
  6
Continuous
 62
           7
100
AcDbVertex
100
AcDb2dVertex
 10
-694.087616983794
 20
219.093795712175
 30
0.0
 70
           8
  0
VERTEX
  5
BF
100
AcDbEntity
  8
0
  6
Continuous
 62
           7
100
AcDbVertex
100
AcDb2dVertex
 10
-702.468742095821
 20
218.693394109336
 30
0.0
 70
           8
  0
VERTEX
  5
C0
100
AcDbEntity
  8
0
  6
Continuous
 62
           7
100
AcDbVertex
100
AcDb2dVertex
 10
-711.198317313158
 20
218.221812912343
 30
0.0
 70
           8
  0
VERTEX
  5
C1
100
AcDbEntity
  8
0
  6
Continuous
 62
           7
100
AcDbVertex
100
AcDb2dVertex
 10
-720.182431364885
 20
217.690456586559
 30
0.0
 70
           8
  0
VERTEX
  5
C2
100
AcDbEntity
  8
0
  6
Continuous
 62
           7
100
AcDbVertex
100
AcDb2dVertex
 10
-729.327172980082
 20
217.110729597344
 30
0.0
 70
           8
  0
VERTEX
  5
C3
100
AcDbEntity
  8
0
  6
Continuous
 62
           7
100
AcDbVertex
100
AcDb2dVertex
 10
-738.538630887827
 20
216.49403641006
 30
0.0
 70
           8
  0
VERTEX
  5
C4
100
AcDbEntity
  8
0
  6
Continuous
 62
           7
100
AcDbVertex
100
AcDb2dVertex
 10
-747.722893817201
 20
215.85178149007
 30
0.0
 70
           8
  0
VERTEX
  5
C5
100
AcDbEntity
  8
0
  6
Continuous
 62
           7
100
AcDbVertex
100
AcDb2dVertex
 10
-756.786050497283
 20
215.195369302734
 30
0.0
 70
           8
  0
VERTEX
  5
C6
100
AcDbEntity
  8
0
  6
Continuous
 62
           7
100
AcDbVertex
100
AcDb2dVertex
 10
-765.634189657152
 20
214.536204313415
 30
0.0
 70
           8
  0
VERTEX
  5
C7
100
AcDbEntity
  8
0
  6
Continuous
 62
           7
100
AcDbVertex
100
AcDb2dVertex
 10
-774.173400025889
 20
213.885690987473
 30
0.0
 70
           8
  0
VERTEX
  5
C8
100
AcDbEntity
  8
0
  6
Continuous
 62
           7
100
AcDbVertex
100
AcDb2dVertex
 10
-782.309770332571
 20
213.25523379027
 30
0.0
 70
           8
  0
VERTEX
  5
C9
100
AcDbEntity
  8
0
  6
Continuous
 62
           7
100
AcDbVertex
100
AcDb2dVertex
 10
-789.94938930628
 20
212.656237187168
 30
0.0
 70
           8
  0
VERTEX
  5
CA
100
AcDbEntity
  8
0
  6
Continuous
 62
           7
100
AcDbVertex
100
AcDb2dVertex
 10
-796.998345676095
 20
212.100105643529
 30
0.0
 70
           8
  0
VERTEX
  5
CB
100
AcDbEntity
  8
0
  6
Continuous
 62
           7
100
AcDbVertex
100
AcDb2dVertex
 10
-803.362728171094
 20
211.598243624715
 30
0.0
 70
           8
  0
VERTEX
  5
CC
100
AcDbEntity
  8
0
  6
Continuous
 62
           7
100
AcDbVertex
100
AcDb2dVertex
 10
-808.948625520358
 20
211.162055596086
 30
0.0
 70
           8
  0
VERTEX
  5
CD
100
AcDbEntity
  8
0
  6
Continuous
 62
           7
100
AcDbVertex
100
AcDb2dVertex
 10
-813.662126452966
 20
210.802946023004
 30
0.0
 70
           8
  0
VERTEX
  5
CE
100
AcDbEntity
  8
0
  6
Continuous
 62
           7
100
AcDbVertex
100
AcDb2dVertex
 10
-817.409319697998
 20
210.532319370831
 30
0.0
 70
           8
  0
VERTEX
  5
CF
100
AcDbEntity
  8
0
  6
Continuous
 62
           7
100
AcDbVertex
100
AcDb2dVertex
 10
-820.096293984533
 20
210.361580104929
 30
0.0
 70
           8
  0
VERTEX
  5
D0
100
AcDbEntity
  8
0
  6
Continuous
 62
           7
100
AcDbVertex
100
AcDb2dVertex
 10
-821.629138041651
 20
210.302132690659
 30
0.0
 70
           8
  0
SEQEND
  5
D1
100
AcDbEntity
  8
0
  6
Continuous
 62
           7
  0
LWPOLYLINE
  5
D2
100
AcDbEntity
  8
0
  6
Continuous
 62
           7
100
AcDbPolyline
 90
        3
 70
         128
 10
-808.41897372728
 20
199.772324630535
 10
-821.629138041651
 20
210.302132690659
 10
-808.726186851275
 20
219.126751442181
1001
ACAD
1000
TCW40_DEV_WIDTH
1002
{
1040
-3.0
1002
}
1001
TCAD
1000
TCW_CUSTOM_DATA
1002
{
1000
#$AUX@_ToolInfo Properties
1070
           8
1000
CMD_POLYLINE@
1002
}
  0
TEXT
  5
D3
100
AcDbEntity
  8
0
  6
Continuous
 62
           7
100
AcDbText
 10
32.77099737968
 20
477.628748064795
 30
0.0
 40
24.0
  1
100mm dense concrete blocks
 11
32.77099737968
 21
501.628748064795
 31
0.0
100
AcDbText
 73
           3
1001
TCAD
1000
TCW_CUSTOM_DATA
1002
{
1000
#$AUX@_ToolInfo Properties
1070
           8
1000
CMD_TEXT@
1002
}
1000
TCW40_TEXT
1002
{
1000
Times New Roman
1070
           0
1070
         257
1002
}
  0
TEXT
  5
D4
100
AcDbEntity
  8
0
  6
Continuous
 62
           7
100
AcDbText
 10
32.77099737968
 20
551.93411368342
 30
0.0
 40
24.0
  1
Beam and block floor as Engineers details
 11
32.77099737968
 21
575.93411368342
 31
0.0
100
AcDbText
 73
           3
1001
TCAD
1000
TCW_CUSTOM_DATA
1002
{
1000
#$AUX@_ToolInfo Properties
1070
           8
1000
CMD_TEXT@
1002
}
1000
TCW40_TEXT
1002
{
1000
Times New Roman
1070
           0
1070
         257
1002
}
  0
TEXT
  5
D5
100
AcDbEntity
  8
0
  6
Continuous
 62
           7
100
AcDbText
 10
32.77099737968
 20
626.239479302045
 30
0.0
 40
24.0
  1
75mm Kingspan Kooltherm - vcl above insulation
 11
32.77099737968
 21
650.239479302045
 31
0.0
100
AcDbText
 73
           3
1001
TCAD
1000
TCW_CUSTOM_DATA
1002
{
1000
#$AUX@_ToolInfo Properties
1070
           8
1000
CMD_TEXT@
1002
}
1000
TCW40_TEXT
1002
{
1000
Times New Roman
1070
           0
1070
         257
1002
}
  0
TEXT
  5
D6
100
AcDbEntity
  8
0
  6
Continuous
 62
           7
100
AcDbText
 10
-47.88279186559
 20
-242.415974789533
 30
0.0
 40
24.0
  1
75mm concrete blinding layers
 11
-47.88279186559
 21
-218.415974789533
 31
0.0
100
AcDbText
 73
           3
1001
TCAD
1000
TCW_CUSTOM_DATA
1002
{
1000
#$AUX@_ToolInfo Properties
1070
           8
1000
CMD_TEXT@
1002
}
1000
TCW40_TEXT
1002
{
1000
Times New Roman
1070
           0
1070
         257
1002
}
  0
MTEXT
  5
D7
100
AcDbEntity
  8
0
  6
Continuous
 62
           7
100
AcDbMText
 10
-232.722226673063
 20
-279.109677414143
 30
0.0
 40
24.0
 41
0.0
 71
           1
 72
           1
  1
Ventilation openings having an opening area of 1500mm2 per\Pmetre run of perimeter wall or 500mm2 per square metre of floor \Parea whichever gives the greater opening area
 73
           1
 44
1.0
1001
TCAD
1000
TCW_REFPOINT
1002
{
1010
-232.722226673063
1020
-279.109677414143
1030
0.0
1002
}
1000
TCW_CUSTOM_DATA
1002
{
1000
#$AUX@_ToolInfo Properties
1070
           8
1000
CMD_TEXT@
1002
}
1000
TCW40_TEXT
1002
{
1000
Times New Roman
1070
           0
1070
         257
1002
}
  0
DIMENSION
  5
E4
100
AcDbEntity
  8
0
  6
Continuous
 62
           7
100
AcDbDimension
  2
*D0
 10
-862.425500650232
 20
120.639310306242
 30
0.0
 11
-862.396986169765
 21
45.639314323224
 31
0.0
 70
           1
 71
           5
 72
           1
 41
1.0
 42
0.0
  1
DPC<>
  3
STANDARD
100
AcDbAlignedDimension
 13
-774.561375442342
 23
-29.327298008263
 33
0.0
 14
-774.618404403275
 24
120.672693957774
 34
0.0
 50
90.021783458594
1001
TCAD
1000
TCW_CUSTOM_DATA
1002
{
1000
#$AUX@_ToolInfo Properties
1070
           8
1000
CMD_PARALLELDIM@
1002
}
1001
ACAD
1000
DSTYLE
1002
{
1070
         148
1040
0.0000001
1070
         285
1070
           8
1070
          41
1040
20.0
1070
          43
1040
0.375
1070
          44
1040
0.125
1070
          42
1040
0.0625
1070
         147
1040
0.0625
1070
          77
1070
           1
1070
         140
1040
18.0
1070
          78
1070
           3
1002
}
  0
MTEXT
  5
E5
100
AcDbEntity
  8
0
  6
Continuous
 62
           7
100
AcDbMText
 10
-1024.766323086752
 20
405.277430325249
 30
0.0
 40
24.0
 41
0.0
 71
           1
 72
           1
  1
Cavity tray with\Pweep holes
 73
           1
 44
1.0
1001
TCAD
1000
TCW_REFPOINT
1002
{
1010
-1024.766323086752
1020
405.277430325249
1030
0.0
1002
}
1000
TCW_CUSTOM_DATA
1002
{
1000
#$AUX@_ToolInfo Properties
1070
           8
1000
CMD_TEXT@
1002
}
1000
TCW40_TEXT
1002
{
1000
Times New Roman
1070
           0
1070
         257
1002
}
  0
TEXT
  5
E6
100
AcDbEntity
  8
0
  6
Continuous
 62
           7
100
AcDbText
 10
-514.800387303199
 20
837.628349585544
 30
0.0
 40
60.0
  1
BEAM AND BLOCK FLOOR
 11
-514.800387303199
 21
897.628349585544
 31
0.0
100
AcDbText
 73
           3
1001
TCAD
1000
TCW_CUSTOM_DATA
1002
{
1000
#$AUX@_ToolInfo Properties
1070
           8
1000
CMD_TEXT@
1002
}
1000
TCW40_TEXT
1002
{
1000
Times New Roman
1070
           0
1070
         257
1002
}
  0
LWPOLYLINE
  5
E7
100
AcDbEntity
  8
0
  6
Continuous
 62
           7
100
AcDbPolyline
 90
        7
 70
         128
 10
-476.200828215074
 20
96.925739480301
 10
-476.200828215074
 20
146.925739480301
 10
-451.200828215074
 20
146.925739480301
 10
-451.200828215074
 20
246.925739480301
 10
-391.200828215074
 20
246.925739480301
 10
-391.200828215074
 20
146.925739480301
 10
-291.200828215074
 20
146.925739480301
1001
ACAD
1000
TCW40_DEV_WIDTH
1002
{
1040
-3.0
1002
}
1001
TCAD
1000
TCW_CUSTOM_DATA
1002
{
1000
#$AUX@_ToolInfo Properties
1070
           8
1000
CMD_POLYLINE@
1002
}
  0
LWPOLYLINE
  5
E8
100
AcDbEntity
  8
0
  6
Continuous
 62
           7
100
AcDbPolyline
 90
       10
 70
         128
 10
-391.200828215074
 20
146.925739480301
 10
48.799171784926
 20
146.925739480301
 10
48.799171784926
 20
246.925739480301
 10
108.799171784926
 20
246.925739480301
 10
108.799171784926
 20
146.925739480301
 10
508.799171784926
 20
146.925739480301
 10
508.799171784926
 20
246.925739480301
 10
568.799171784926
 20
246.925739480301
 10
568.799171784926
 20
146.925739480301
 10
814.443169254495
 20
146.925739480301
1001
ACAD
1000
TCW40_DEV_WIDTH
1002
{
1040
-3.0
1002
}
1001
TCAD
1000
TCW_CUSTOM_DATA
1002
{
1000
#$AUX@_ToolInfo Properties
1070
           8
1000
CMD_POLYLINE@
1002
}
  0
LINE
  5
E9
100
AcDbEntity
  8
0
  6
Continuous
 62
           7
100
AcDbLine
 10
568.799171784926
 20
246.925739480301
 30
0.0
 11
814.443169254495
 21
246.925739480301
 31
0.0
1001
ACAD
1000
TCW40_DEV_WIDTH
1002
{
1040
-3.0
1002
}
1001
TCAD
1000
TCW_CUSTOM_DATA
1002
{
1000
#$AUX@_ToolInfo Properties
1070
           8
1000
CMD_LINE@
1002
}
  0
LWPOLYLINE
  5
EA
100
AcDbEntity
  8
0
  6
Continuous
 62
           7
100
AcDbPolyline
 90
        4
 70
         129
 10
-391.200828215074
 20
146.925739480301
 10
-391.200828215074
 20
246.925739480301
 10
48.799171784926
 20
246.925739480301
 10
48.799171784926
 20
146.925739480301
1001
ACAD
1000
TCW40_DEV_WIDTH
1002
{
1040
-3.0
1002
}
  0
HATCH
  5
EB
100
AcDbEntity
  8
0
  6
Continuous
 62
           7
100
AcDbHatch
 10
0.0
 20
0.0
 30
0.0
210
0.0
220
0.0
230
1.0
  2
ANSI37
 70
           0
 71
           0
 91
        1
 92
        3
 72
           0
 73
           1
 93
        4
 10
-391.2008282150739
 20
146.92573948030071
 10
-391.2008282150739
 20
246.92573948030071
 10
48.799171784926102
 20
246.92573948030071
 10
48.799171784926102
 20
146.92573948030071
 97
        0
 75
           0
 76
           1
 52
0.0
 41
200.0
 77
           0
 78
           2
 53
135.0
 43
0.0
 44
0.0
 45
-17.677669529663689
 46
-17.677669529663685
 79
           1
 49
200.0
 53
45.0
 43
0.0
 44
0.0
 45
-17.677669529663685
 46
17.677669529663689
 79
           1
 49
200.0
 98
        0
  0
LWPOLYLINE
  5
EC
100
AcDbEntity
  8
0
  6
Continuous
 62
           7
100
AcDbPolyline
 90
        4
 70
         129
 10
108.799171784926
 20
146.925739480301
 10
108.799171784926
 20
246.925739480301
 10
508.799171784926
 20
246.925739480301
 10
508.799171784926
 20
146.925739480301
1001
ACAD
1000
TCW40_DEV_WIDTH
1002
{
1040
-3.0
1002
}
  0
HATCH
  5
ED
100
AcDbEntity
  8
0
  6
Continuous
 62
           7
100
AcDbHatch
 10
0.0
 20
0.0
 30
0.0
210
0.0
220
0.0
230
1.0
  2
ANSI37
 70
           0
 71
           0
 91
        1
 92
        3
 72
           0
 73
           1
 93
        4
 10
108.7991717849261
 20
146.92573948030068
 10
108.7991717849261
 20
246.92573948030068
 10
508.7991717849261
 20
246.92573948030068
 10
508.7991717849261
 20
146.92573948030068
 97
        0
 75
           0
 76
           1
 52
0.0
 41
200.0
 77
           0
 78
           2
 53
135.0
 43
0.0
 44
0.0
 45
-17.677669529663689
 46
-17.677669529663685
 79
           1
 49
200.0
 53
45.0
 43
0.0
 44
0.0
 45
-17.677669529663685
 46
17.677669529663689
 79
           1
 49
200.0
 98
        0
  0
LWPOLYLINE
  5
EE
100
AcDbEntity
  8
0
  6
Continuous
 62
           7
100
AcDbPolyline
 90
        4
 70
         129
 10
568.799171784926
 20
146.925739480301
 10
568.799171784926
 20
246.925739480301
 10
814.443169254495
 20
246.925739480301
 10
814.443169254495
 20
146.925739480301
1001
ACAD
1000
TCW40_DEV_WIDTH
1002
{
1040
-3.0
1002
}
  0
HATCH
  5
EF
100
AcDbEntity
  8
0
  6
Continuous
 62
           7
100
AcDbHatch
 10
0.0
 20
0.0
 30
0.0
210
0.0
220
0.0
230
1.0
  2
ANSI37
 70
           0
 71
           0
 91
        1
 92
        3
 72
           0
 73
           1
 93
        4
 10
568.7991717849261
 20
146.92573948030068
 10
568.7991717849261
 20
246.92573948030068
 10
814.44316925449493
 20
246.92573948030065
 10
814.44316925449516
 20
146.92573948030068
 97
        0
 75
           0
 76
           1
 52
0.0
 41
200.0
 77
           0
 78
           2
 53
135.0
 43
0.0
 44
0.0
 45
-17.677669529663689
 46
-17.677669529663685
 79
           1
 49
200.0
 53
45.0
 43
0.0
 44
0.0
 45
-17.677669529663685
 46
17.677669529663689
 79
           1
 49
200.0
 98
        0
  0
TEXT
  5
F0
100
AcDbEntity
  8
0
  6
Continuous
 62
           7
100
AcDbText
 10
32.77099737968
 20
403.32338244617
 30
0.0
 40
24.0
  1
1200 guage DPM under insulation
 11
32.77099737968
 21
427.32338244617
 31
0.0
100
AcDbText
 73
           3
1001
TCAD
1000
TCW_CUSTOM_DATA
1002
{
1000
#$AUX@_ToolInfo Properties
1070
           8
1000
CMD_TEXT@
1002
}
1000
TCW40_TEXT
1002
{
1000
Times New Roman
1070
           0
1070
         257
1002
}
  0
DIMENSION
  5
101
100
AcDbEntity
  8
0
  6
Continuous
 62
           7
100
AcDbDimension
  2
*D1
 10
920.074215706247
 20
21.928483455259
 30
0.0
 11
920.074215706247
 21
59.42711146778
 31
0.0
 70
           1
 71
           5
 72
           1
 41
1.0
 42
0.0
  1
75mm min air void
  3
STANDARD
100
AcDbAlignedDimension
 13
814.443169254496
 23
96.925739480301
 33
0.0
 14
814.443169254496
 24
21.928483455259
 34
0.0
 50
-90.0
1001
TCAD
1000
TCW_CUSTOM_DATA
1002
{
1000
#$AUX@_ToolInfo Properties
1070
           8
1000
CMD_PARALLELDIM@
1002
}
1001
ACAD
1000
DSTYLE
1002
{
1070
         171
1070
           5
1070
         148
1040
0.00001
1070
         274
1070
           5
1070
         285
1070
           8
1070
          41
1040
30.0
1070
         179
1070
           5
1070
         271
1070
           5
1070
          43
1040
0.375
1070
          44
1040
0.125
1070
          42
1040
0.0625
1070
         147
1040
0.0625
1070
          45
1040
0.00001
1070
          77
1070
           1
1070
         272
1070
           3
1070
         140
1040
18.0
1070
          78
1070
           3
1002
}
  0
LWPOLYLINE
  5
102
100
AcDbEntity
  8
0
  6
Continuous
 62
           7
100
AcDbPolyline
 90
        3
 70
         128
 10
-19.503323451756
 20
704.960796369791
 10
-338.545963001121
 20
704.960796369791
 10
-338.545963001121
 20
347.537769855435
1001
ACAD
1000
TCW40_DEV_WIDTH
1002
{
1040
-3.0
1002
}
1001
TCAD
1000
TCW_CUSTOM_DATA
1002
{
1000
#$AUX@_ToolInfo Properties
1070
           8
1000
CMD_POLYLINE@
1002
}
  0
LWPOLYLINE
  5
103
100
AcDbEntity
  8
0
  6
Continuous
 62
           7
100
AcDbPolyline
 90
        3
 70
         128
 10
-18.515575341696
 20
633.134304434827
 10
-278.12389518792
 20
633.134304434827
 10
-278.12389518792
 20
284.717658574088
1001
ACAD
1000
TCW40_DEV_WIDTH
1002
{
1040
-3.0
1002
}
1001
TCAD
1000
TCW_CUSTOM_DATA
1002
{
1000
#$AUX@_ToolInfo Properties
1070
           8
1000
CMD_POLYLINE@
1002
}
  0
LWPOLYLINE
  5
104
100
AcDbEntity
  8
0
  6
Continuous
 62
           7
100
AcDbPolyline
 90
        3
 70
         128
 10
-22.466567781936
 20
560.90168829917
 10
-215.658699743323
 20
560.90168829917
 10
-215.658699743323
 20
182.856800100046
1001
ACAD
1000
TCW40_DEV_WIDTH
1002
{
1040
-3.0
1002
}
1001
TCAD
1000
TCW_CUSTOM_DATA
1002
{
1000
#$AUX@_ToolInfo Properties
1070
           8
1000
CMD_POLYLINE@
1002
}
  0
LWPOLYLINE
  5
105
100
AcDbEntity
  8
0
  6
Continuous
 62
           7
100
AcDbPolyline
 90
        3
 70
         128
 10
-21.478819671876
 20
489.910828476134
 10
-154.613167765116
 20
489.910828476134
 10
-154.613167765116
 20
175.603245157192
1001
ACAD
1000
TCW40_DEV_WIDTH
1002
{
1040
-3.0
1002
}
1001
TCAD
1000
TCW_CUSTOM_DATA
1002
{
1000
#$AUX@_ToolInfo Properties
1070
           8
1000
CMD_POLYLINE@
1002
}
  0
LWPOLYLINE
  5
106
100
AcDbEntity
  8
0
  6
Continuous
 62
           7
100
AcDbPolyline
 90
        3
 70
         128
 10
-21.478819671876
 20
417.805216441758
 10
-86.204057123573
 20
417.805216441758
 10
-86.204057123573
 20
243.950588943688
1001
ACAD
1000
TCW40_DEV_WIDTH
1002
{
1040
-3.0
1002
}
1001
TCAD
1000
TCW_CUSTOM_DATA
1002
{
1000
#$AUX@_ToolInfo Properties
1070
           8
1000
CMD_POLYLINE@
1002
}
  0
LWPOLYLINE
  5
107
100
AcDbEntity
  8
0
  6
Continuous
 62
           7
100
AcDbPolyline
 90
        4
 70
         128
 10
-476.200828215074
 20
434.310666722842
 10
-476.200828215074
 20
246.925739480301
 10
-476.483807922697
 20
246.925739480301
 10
814.443169254495
 20
246.925739480301
1001
ACAD
1000
TCW40_DEV_WIDTH
1002
{
1040
-3.0
1002
}
1001
TCAD
1000
TCW_CUSTOM_DATA
1002
{
1000
#$AUX@_ToolInfo Properties
1070
           8
1000
CMD_POLYLINE@
1002
}
  0
LWPOLYLINE
  5
108
100
AcDbEntity
  8
0
  6
Continuous
 62
           7
100
AcDbPolyline
 90
        3
 70
         128
 10
-82.558481464438
 20
-231.221388681534
 10
-168.091849486582
 20
-231.221388681534
 10
-168.091849486582
 20
-25.47896289854
1001
ACAD
1000
TCW40_DEV_WIDTH
1002
{
1040
-3.0
1002
}
1001
TCAD
1000
TCW_CUSTOM_DATA
1002
{
1000
#$AUX@_ToolInfo Properties
1070
           8
1000
CMD_POLYLINE@
1002
}
  0
LWPOLYLINE
  5
109
100
AcDbEntity
  8
0
  6
Continuous
 62
           7
100
AcDbPolyline
 90
        3
 70
         128
 10
-269.807206053455
 20
-349.118733793137
 10
-334.535160232375
 20
-349.118733793137
 10
-334.535160232375
 20
62.366117772851
1001
ACAD
1000
TCW40_DEV_WIDTH
1002
{
1040
-3.0
1002
}
1001
TCAD
1000
TCW_CUSTOM_DATA
1002
{
1000
#$AUX@_ToolInfo Properties
1070
           8
1000
CMD_POLYLINE@
1002
}
  0
LINE
  5
10A
100
AcDbEntity
  8
0
  6
Continuous
 62
           7
100
AcDbLine
 10
-466.378162780917
 20
547.978887595988
 30
0.0
 11
-466.378162780917
 21
670.588644517645
 31
0.0
1001
ACAD
1000
TCW40_DEV_WIDTH
1002
{
1040
-3.0
1002
}
1001
TCAD
1000
TCW_CUSTOM_DATA
1002
{
1000
#$AUX@_ToolInfo Properties
1070
           8
1000
CMD_LINE@
1002
}
  0
LINE
  5
10B
100
AcDbEntity
  8
0
  6
Continuous
 62
           7
100
AcDbLine
 10
-476.200828215074
 20
96.928483455259
 30
0.0
 11
-476.200828215074
 21
669.942451089095
 31
0.0
1001
ACAD
1000
TCW40_DEV_WIDTH
1002
{
1040
-3.0
1002
}
1001
TCAD
1000
TCW_CUSTOM_DATA
1002
{
1000
#$AUX@_ToolInfo Properties
1070
           8
1000
CMD_LINE@
1002
}
  0
LINE
  5
10C
100
AcDbEntity
  8
0
  6
Continuous
 62
           7
100
AcDbLine
 10
-589.13196222439
 20
246.89519681778
 30
0.0
 11
-576.028648341311
 21
246.89519681778
 31
0.0
1001
ACAD
1000
TCW40_DEV_WIDTH
1002
{
1040
-3.0
1002
}
1001
TCAD
1000
TCW_CUSTOM_DATA
1002
{
1000
#$AUX@_ToolInfo Properties
1070
           8
1000
CMD_LINE@
1002
}
  0
LINE
  5
10D
100
AcDbEntity
  8
0
  6
Continuous
 62
           7
100
AcDbLine
 10
-582.580305282851
 20
246.89519681778
 30
0.0
 11
-589.13196222439
 21
246.89519681778
 31
0.0
1001
ACAD
1000
TCW40_DEV_WIDTH
1002
{
1040
-3.0
1002
}
1001
TCAD
1000
TCW_CUSTOM_DATA
1002
{
1000
#$AUX@_ToolInfo Properties
1070
           8
1000
CMD_LINE@
1002
}
  0
LINE
  5
10E
100
AcDbEntity
  8
0
  6
Continuous
 62
           7
100
AcDbLine
 10
-589.13196222439
 20
246.89519681778
 30
0.0
 11
-576.028648341311
 21
246.89519681778
 31
0.0
1001
ACAD
1000
TCW40_DEV_WIDTH
1002
{
1040
-3.0
1002
}
1001
TCAD
1000
TCW_CUSTOM_DATA
1002
{
1000
#$AUX@_ToolInfo Properties
1070
           8
1000
CMD_LINE@
1002
}
  0
LINE
  5
10F
100
AcDbEntity
  8
0
  6
Continuous
 62
           7
100
AcDbLine
 10
-590.818968045607
 20
246.979468907133
 30
0.0
 11
-590.818968045607
 21
246.89519681778
 31
0.0
1001
ACAD
1000
TCW40_DEV_WIDTH
1002
{
1040
-3.0
1002
}
  0
LINE
  5
110
100
AcDbEntity
  8
0
  6
Continuous
 62
           7
100
AcDbLine
 10
-590.818968045607
 20
246.89519681778
 30
0.0
 11
-576.028648341311
 21
246.89519681778
 31
0.0
1001
ACAD
1000
TCW40_DEV_WIDTH
1002
{
1040
-3.0
1002
}
  0
LINE
  5
111
100
AcDbEntity
  8
0
  6
Continuous
 62
           7
100
AcDbLine
 10
-576.028648341311
 20
246.89519681778
 30
0.0
 11
-576.028648341311
 21
246.979468907133
 31
0.0
1001
ACAD
1000
TCW40_DEV_WIDTH
1002
{
1040
-3.0
1002
}
  0
ARC
  5
112
100
AcDbEntity
  8
DETAIL
100
AcDbCircle
 10
-609.762651626255
 20
443.073169914329
 30
0.0
 40
11.673077811175
100
AcDbArc
 50
89.339582370277
 51
162.002726467346
1001
ACAD
1000
TCW40_DEV_WIDTH
1002
{
1040
-3.0
1002
}
  0
ARC
  5
113
100
AcDbEntity
  8
DETAIL
100
AcDbCircle
 10
-584.681549060901
 20
429.682730687594
 30
0.0
 40
17.54250277492
100
AcDbArc
 50
95.441106184698
 51
126.879711558442
1001
ACAD
1000
TCW40_DEV_WIDTH
1002
{
1040
-3.0
1002
}
  0
ARC
  5
114
100
AcDbEntity
  8
DETAIL
100
AcDbCircle
 10
-586.5074078234
 20
464.393808016938
 30
0.0
 40
17.263852811173
100
AcDbArc
 50
-117.247357372773
 51
-86.81054914583
1001
ACAD
1000
TCW40_DEV_WIDTH
1002
{
1040
-3.0
1002
}
  0
ARC
  5
115
100
AcDbEntity
  8
DETAIL
100
AcDbCircle
 10
-585.199159936864
 20
438.506256853709
 30
0.0
 40
8.67847415711
100
AcDbArc
 50
-95.401776784949
 51
95.401776784956
1001
ACAD
1000
TCW40_DEV_WIDTH
1002
{
1040
-3.0
1002
}
  0
ARC
  5
116
100
AcDbEntity
  8
DETAIL
100
AcDbCircle
 10
-585.740123523672
 20
447.048737682955
 30
0.0
 40
17.263852811173
100
AcDbArc
 50
-117.247357372772
 51
-86.810549145829
1001
ACAD
1000
TCW40_DEV_WIDTH
1002
{
1040
-3.0
1002
}
  0
ARC
  5
117
100
AcDbEntity
  8
DETAIL
100
AcDbCircle
 10
-610.616121438911
 20
459.644726483893
 30
0.0
 40
22.16288599096
100
AcDbArc
 50
-91.592194131624
 51
-70.084334385075
1001
ACAD
1000
TCW40_DEV_WIDTH
1002
{
1040
-3.0
1002
}
  0
ARC
  5
118
100
AcDbEntity
  8
DETAIL
100
AcDbCircle
 10
-609.050750561665
 20
415.247206415155
 30
0.0
 40
22.162885990961
100
AcDbArc
 50
70.084334385075
 51
91.592194131624
1001
ACAD
1000
TCW40_DEV_WIDTH
1002
{
1040
-3.0
1002
}
  0
ARC
  5
119
100
AcDbEntity
  8
DETAIL
100
AcDbCircle
 10
-610.226129444587
 20
448.236555399309
 30
0.0
 40
10.751746448194
100
AcDbArc
 50
-171.67494056735
 51
-91.847401517734
1001
ACAD
1000
TCW40_DEV_WIDTH
1002
{
1040
-3.0
1002
}
  0
LINE
  5
11A
100
AcDbEntity
  8
DETAIL
100
AcDbLine
 10
-603.066630691925
 20
438.807291303202
 30
0.0
 11
-595.209454386737
 21
443.714929840197
 31
0.0
1001
ACAD
1000
TCW40_DEV_WIDTH
1002
{
1040
-3.0
1002
}
  0
LINE
  5
11B
100
AcDbEntity
  8
DETAIL
100
AcDbLine
 10
-601.501259814678
 20
436.084641595845
 30
0.0
 11
-593.644083509491
 21
431.700512038652
 31
0.0
1001
ACAD
1000
TCW40_DEV_WIDTH
1002
{
1040
-3.0
1002
}
  0
ARC
  5
11C
100
AcDbEntity
  8
DETAIL
100
AcDbCircle
 10
-586.178578466916
 20
481.657439819458
 30
0.0
 40
17.263852811174
100
AcDbArc
 50
-117.247357372772
 51
-86.81054914583
1001
ACAD
1000
TCW40_DEV_WIDTH
1002
{
1040
-3.0
1002
}
  0
ARC
  5
11D
100
AcDbEntity
  8
DETAIL
100
AcDbCircle
 10
-584.352719704417
 20
446.946362490114
 30
0.0
 40
17.54250277492
100
AcDbArc
 50
95.441106184699
 51
126.879711558443
1001
ACAD
1000
TCW40_DEV_WIDTH
1002
{
1040
-3.0
1002
}
  0
ARC
  5
11E
100
AcDbEntity
  8
DETAIL
100
AcDbCircle
 10
-585.199159936864
 20
455.769888656229
 30
0.0
 40
8.67847415711
100
AcDbArc
 50
-95.401776784949
 51
95.401776784954
1001
ACAD
1000
TCW40_DEV_WIDTH
1002
{
1040
-3.0
1002
}
  0
ARC
  5
11F
100
AcDbEntity
  8
DETAIL
100
AcDbCircle
 10
-609.489205504909
 20
449.855908551658
 30
0.0
 40
22.16288599096
100
AcDbArc
 50
70.084334385075
 51
91.592194131624
1001
ACAD
1000
TCW40_DEV_WIDTH
1002
{
1040
-3.0
1002
}
  0
ARC
  5
120
100
AcDbEntity
  8
DETAIL
100
AcDbCircle
 10
-609.818034861393
 20
432.592276749137
 30
0.0
 40
22.16288599096
100
AcDbArc
 50
70.084334385075
 51
91.592194131624
1001
ACAD
1000
TCW40_DEV_WIDTH
1002
{
1040
-3.0
1002
}
  0
ARC
  5
121
100
AcDbEntity
  8
DETAIL
100
AcDbCircle
 10
-610.287292082427
 20
476.908358286413
 30
0.0
 40
22.16288599096
100
AcDbArc
 50
-91.592194131624
 51
-70.084334385075
1001
ACAD
1000
TCW40_DEV_WIDTH
1002
{
1040
-3.0
1002
}
  0
ARC
  5
122
100
AcDbEntity
  8
DETAIL
100
AcDbCircle
 10
-610.226129444587
 20
465.500187201829
 30
0.0
 40
10.751746448194
100
AcDbArc
 50
-171.674940567351
 51
-91.847401517734
1001
ACAD
1000
TCW40_DEV_WIDTH
1002
{
1040
-3.0
1002
}
  0
ARC
  5
123
100
AcDbEntity
  8
DETAIL
100
AcDbCircle
 10
-609.762651626255
 20
460.336801716849
 30
0.0
 40
11.673077811175
100
AcDbArc
 50
89.339582370277
 51
162.00272646734
1001
ACAD
1000
TCW40_DEV_WIDTH
1002
{
1040
-3.0
1002
}
  0
LINE
  5
124
100
AcDbEntity
  8
DETAIL
100
AcDbLine
 10
-602.737801335441
 20
456.070923105723
 30
0.0
 11
-594.880625030253
 21
460.978561642717
 31
0.0
1001
ACAD
1000
TCW40_DEV_WIDTH
1002
{
1040
-3.0
1002
}
  0
LINE
  5
125
100
AcDbEntity
  8
DETAIL
100
AcDbLine
 10
-602.268544114407
 20
453.429711929829
 30
0.0
 11
-594.411367809219
 21
449.045582372635
 31
0.0
1001
ACAD
1000
TCW40_DEV_WIDTH
1002
{
1040
-3.0
1002
}
  0
LINE
  5
126
100
AcDbEntity
  8
DETAIL
100
AcDbLine
 10
-601.939714757923
 20
470.693343732349
 30
0.0
 11
-594.082538452735
 21
466.309214175156
 31
0.0
1001
ACAD
1000
TCW40_DEV_WIDTH
1002
{
1040
-3.0
1002
}
  0
ARC
  5
127
100
AcDbEntity
  8
DETAIL
100
AcDbCircle
 10
-584.352719704417
 20
412.364897714149
 30
0.0
 40
17.54250277492
100
AcDbArc
 50
95.441106184699
 51
126.879711558442
1001
ACAD
1000
TCW40_DEV_WIDTH
1002
{
1040
-3.0
1002
}
  0
ARC
  5
128
100
AcDbEntity
  8
DETAIL
100
AcDbCircle
 10
-585.199159936864
 20
421.188423880264
 30
0.0
 40
8.67847415711
100
AcDbArc
 50
-95.401776784949
 51
95.401776784955
1001
ACAD
1000
TCW40_DEV_WIDTH
1002
{
1040
-3.0
1002
}
  0
ARC
  5
129
100
AcDbEntity
  8
DETAIL
100
AcDbCircle
 10
-584.681549060901
 20
395.101265911629
 30
0.0
 40
17.542502774919
100
AcDbArc
 50
95.441106184698
 51
126.879711558443
1001
ACAD
1000
TCW40_DEV_WIDTH
1002
{
1040
-3.0
1002
}
  0
ARC
  5
12A
100
AcDbEntity
  8
DETAIL
100
AcDbCircle
 10
-586.507407823401
 20
429.812343240973
 30
0.0
 40
17.263852811173
100
AcDbArc
 50
-117.247357372772
 51
-86.81054914583
1001
ACAD
1000
TCW40_DEV_WIDTH
1002
{
1040
-3.0
1002
}
  0
ARC
  5
12B
100
AcDbEntity
  8
DETAIL
100
AcDbCircle
 10
-585.199159936864
 20
403.924792077743
 30
0.0
 40
8.67847415711
100
AcDbArc
 50
-95.401776784949
 51
95.401776784954
1001
ACAD
1000
TCW40_DEV_WIDTH
1002
{
1040
-3.0
1002
}
  0
ARC
  5
12C
100
AcDbEntity
  8
DETAIL
100
AcDbCircle
 10
-586.178578466916
 20
412.536266139233
 30
0.0
 40
17.263852811174
100
AcDbArc
 50
-117.247357372773
 51
-86.81054914583
1001
ACAD
1000
TCW40_DEV_WIDTH
1002
{
1040
-3.0
1002
}
  0
ARC
  5
12D
100
AcDbEntity
  8
DETAIL
100
AcDbCircle
 10
-584.352719704417
 20
377.825188809889
 30
0.0
 40
17.542502774919
100
AcDbArc
 50
95.441106184699
 51
126.879711558443
1001
ACAD
1000
TCW40_DEV_WIDTH
1002
{
1040
-3.0
1002
}
  0
ARC
  5
12E
100
AcDbEntity
  8
DETAIL
100
AcDbCircle
 10
-585.199159936864
 20
386.648714976003
 30
0.0
 40
8.67847415711
100
AcDbArc
 50
-95.401776784949
 51
95.401776784955
1001
ACAD
1000
TCW40_DEV_WIDTH
1002
{
1040
-3.0
1002
}
  0
ARC
  5
12F
100
AcDbEntity
  8
DETAIL
100
AcDbCircle
 10
-586.507407823401
 20
395.272634336713
 30
0.0
 40
17.263852811174
100
AcDbArc
 50
-117.247357372773
 51
-86.81054914583
1001
ACAD
1000
TCW40_DEV_WIDTH
1002
{
1040
-3.0
1002
}
  0
ARC
  5
130
100
AcDbEntity
  8
DETAIL
100
AcDbCircle
 10
-610.228873519968
 20
413.651960046427
 30
0.0
 40
10.748578354508
100
AcDbArc
 50
-171.689334514105
 51
-91.841460794414
1001
ACAD
1000
TCW40_DEV_WIDTH
1002
{
1040
-3.0
1002
}
  0
ARC
  5
131
100
AcDbEntity
  8
DETAIL
100
AcDbCircle
 10
-610.616121438911
 20
425.063261707928
 30
0.0
 40
22.162885990961
100
AcDbArc
 50
-91.592194131624
 51
-70.084334385075
1001
ACAD
1000
TCW40_DEV_WIDTH
1002
{
1040
-3.0
1002
}
  0
ARC
  5
132
100
AcDbEntity
  8
DETAIL
100
AcDbCircle
 10
-609.489205504909
 20
380.734734871432
 30
0.0
 40
22.16288599096
100
AcDbArc
 50
70.084334385075
 51
91.592194131624
1001
ACAD
1000
TCW40_DEV_WIDTH
1002
{
1040
-3.0
1002
}
  0
ARC
  5
133
100
AcDbEntity
  8
DETAIL
100
AcDbCircle
 10
-610.287292082427
 20
407.787184606187
 30
0.0
 40
22.16288599096
100
AcDbArc
 50
-91.592194131625
 51
-70.084334385075
1001
ACAD
1000
TCW40_DEV_WIDTH
1002
{
1040
-3.0
1002
}
  0
ARC
  5
134
100
AcDbEntity
  8
DETAIL
100
AcDbCircle
 10
-610.226129444587
 20
396.379013521603
 30
0.0
 40
10.751746448194
100
AcDbArc
 50
-171.674940567348
 51
-91.847401517734
1001
ACAD
1000
TCW40_DEV_WIDTH
1002
{
1040
-3.0
1002
}
  0
ARC
  5
135
100
AcDbEntity
  8
DETAIL
100
AcDbCircle
 10
-609.762651626255
 20
391.215628036623
 30
0.0
 40
11.673077811176
100
AcDbArc
 50
89.339582370277
 51
162.00272646734
1001
ACAD
1000
TCW40_DEV_WIDTH
1002
{
1040
-3.0
1002
}
  0
LINE
  5
136
100
AcDbEntity
  8
DETAIL
100
AcDbLine
 10
-602.737801335441
 20
386.949749425497
 30
0.0
 11
-594.880625030253
 21
391.857387962491
 31
0.0
1001
ACAD
1000
TCW40_DEV_WIDTH
1002
{
1040
-3.0
1002
}
  0
LINE
  5
137
100
AcDbEntity
  8
DETAIL
100
AcDbLine
 10
-603.066630691925
 20
404.225826527237
 30
0.0
 11
-595.209454386737
 21
409.133465064231
 31
0.0
1001
ACAD
1000
TCW40_DEV_WIDTH
1002
{
1040
-3.0
1002
}
  0
LINE
  5
138
100
AcDbEntity
  8
DETAIL
100
AcDbLine
 10
-601.939714757923
 20
401.572170052123
 30
0.0
 11
-594.082538452735
 21
397.18804049493
 31
0.0
1001
ACAD
1000
TCW40_DEV_WIDTH
1002
{
1040
-3.0
1002
}
  0
ARC
  5
139
100
AcDbEntity
  8
DETAIL
100
AcDbCircle
 10
-609.818034861393
 20
398.010811973173
 30
0.0
 40
22.16288599096
100
AcDbArc
 50
70.084334385075
 51
91.592194131624
1001
ACAD
1000
TCW40_DEV_WIDTH
1002
{
1040
-3.0
1002
}
  0
ARC
  5
13A
100
AcDbEntity
  8
DETAIL
100
AcDbCircle
 10
-610.287292082427
 20
442.326893510448
 30
0.0
 40
22.162885990961
100
AcDbArc
 50
-91.592194131625
 51
-70.084334385075
1001
ACAD
1000
TCW40_DEV_WIDTH
1002
{
1040
-3.0
1002
}
  0
ARC
  5
13B
100
AcDbEntity
  8
DETAIL
100
AcDbCircle
 10
-610.226129444587
 20
430.918722425864
 30
0.0
 40
10.751746448193
100
AcDbArc
 50
-171.674940567348
 51
-91.847401517734
1001
ACAD
1000
TCW40_DEV_WIDTH
1002
{
1040
-3.0
1002
}
  0
ARC
  5
13C
100
AcDbEntity
  8
DETAIL
100
AcDbCircle
 10
-609.765278922571
 20
408.495339452144
 30
0.0
 40
11.669456464717
100
AcDbArc
 50
89.333979885283
 51
162.015711812644
1001
ACAD
1000
TCW40_DEV_WIDTH
1002
{
1040
-3.0
1002
}
  0
ARC
  5
13D
100
AcDbEntity
  8
DETAIL
100
AcDbCircle
 10
-609.762651626255
 20
425.755336940885
 30
0.0
 40
11.673077811175
100
AcDbArc
 50
89.339582370277
 51
162.002726467346
1001
ACAD
1000
TCW40_DEV_WIDTH
1002
{
1040
-3.0
1002
}
  0
LINE
  5
13E
100
AcDbEntity
  8
DETAIL
100
AcDbLine
 10
-602.737801335441
 20
421.489458329758
 30
0.0
 11
-594.880625030253
 21
426.397096866751
 31
0.0
1001
ACAD
1000
TCW40_DEV_WIDTH
1002
{
1040
-3.0
1002
}
  0
LINE
  5
13F
100
AcDbEntity
  8
DETAIL
100
AcDbLine
 10
-602.268544114407
 20
418.848247153863
 30
0.0
 11
-594.411367809219
 21
414.46411759667
 31
0.0
1001
ACAD
1000
TCW40_DEV_WIDTH
1002
{
1040
-3.0
1002
}
  0
ARC
  5
140
100
AcDbEntity
  8
DETAIL
100
AcDbCircle
 10
-609.762651626255
 20
373.951996234103
 30
0.0
 40
11.673077811175
100
AcDbArc
 50
89.339582370277
 51
162.002726467342
1001
ACAD
1000
TCW40_DEV_WIDTH
1002
{
1040
-3.0
1002
}
  0
ARC
  5
141
100
AcDbEntity
  8
DETAIL
100
AcDbCircle
 10
-584.681549060901
 20
360.561557007368
 30
0.0
 40
17.54250277492
100
AcDbArc
 50
95.441106184698
 51
126.879711558443
1001
ACAD
1000
TCW40_DEV_WIDTH
1002
{
1040
-3.0
1002
}
  0
ARC
  5
142
100
AcDbEntity
  8
DETAIL
100
AcDbCircle
 10
-586.507407823401
 20
395.272634336713
 30
0.0
 40
17.263852811174
100
AcDbArc
 50
-117.247357372773
 51
-86.81054914583
1001
ACAD
1000
TCW40_DEV_WIDTH
1002
{
1040
-3.0
1002
}
  0
ARC
  5
143
100
AcDbEntity
  8
DETAIL
100
AcDbCircle
 10
-585.199159936864
 20
369.385083173483
 30
0.0
 40
8.67847415711
100
AcDbArc
 50
-95.401776784949
 51
95.401776784956
1001
ACAD
1000
TCW40_DEV_WIDTH
1002
{
1040
-3.0
1002
}
  0
ARC
  5
144
100
AcDbEntity
  8
DETAIL
100
AcDbCircle
 10
-585.740123523672
 20
377.927564002729
 30
0.0
 40
17.263852811173
100
AcDbArc
 50
-117.247357372772
 51
-86.810549145829
1001
ACAD
1000
TCW40_DEV_WIDTH
1002
{
1040
-3.0
1002
}
  0
ARC
  5
145
100
AcDbEntity
  8
DETAIL
100
AcDbCircle
 10
-610.616121438911
 20
390.523552803666
 30
0.0
 40
22.16288599096
100
AcDbArc
 50
-91.592194131624
 51
-70.084334385074
1001
ACAD
1000
TCW40_DEV_WIDTH
1002
{
1040
-3.0
1002
}
  0
ARC
  5
146
100
AcDbEntity
  8
DETAIL
100
AcDbCircle
 10
-609.050750561665
 20
346.126032734929
 30
0.0
 40
22.16288599096
100
AcDbArc
 50
70.084334385075
 51
91.592194131624
1001
ACAD
1000
TCW40_DEV_WIDTH
1002
{
1040
-3.0
1002
}
  0
ARC
  5
147
100
AcDbEntity
  8
DETAIL
100
AcDbCircle
 10
-610.226129444587
 20
379.115381719083
 30
0.0
 40
10.751746448194
100
AcDbArc
 50
-171.674940567351
 51
-91.847401517734
1001
ACAD
1000
TCW40_DEV_WIDTH
1002
{
1040
-3.0
1002
}
  0
LINE
  5
148
100
AcDbEntity
  8
DETAIL
100
AcDbLine
 10
-603.066630691925
 20
369.686117622976
 30
0.0
 11
-595.209454386737
 21
374.59375615997
 31
0.0
1001
ACAD
1000
TCW40_DEV_WIDTH
1002
{
1040
-3.0
1002
}
  0
LINE
  5
149
100
AcDbEntity
  8
DETAIL
100
AcDbLine
 10
-601.501259814678
 20
366.963467915619
 30
0.0
 11
-593.644083509491
 21
362.579338358426
 31
0.0
1001
ACAD
1000
TCW40_DEV_WIDTH
1002
{
1040
-3.0
1002
}
  0
ARC
  5
14A
100
AcDbEntity
  8
DETAIL
100
AcDbCircle
 10
-609.818034861393
 20
363.471103068912
 30
0.0
 40
22.16288599096
100
AcDbArc
 50
70.084334385075
 51
91.592194131624
1001
ACAD
1000
TCW40_DEV_WIDTH
1002
{
1040
-3.0
1002
}
  0
LINE
  5
14B
100
AcDbEntity
  8
DETAIL
100
AcDbLine
 10
-602.268544114407
 20
384.308538249602
 30
0.0
 11
-594.411367809219
 21
379.92440869241
 31
0.0
1001
ACAD
1000
TCW40_DEV_WIDTH
1002
{
1040
-3.0
1002
}
  0
ARC
  5
14C
100
AcDbEntity
  8
DETAIL
100
AcDbCircle
 10
-584.352719704417
 20
343.243724033923
 30
0.0
 40
17.542502774919
100
AcDbArc
 50
95.441106184699
 51
126.879711558443
1001
ACAD
1000
TCW40_DEV_WIDTH
1002
{
1040
-3.0
1002
}
  0
ARC
  5
14D
100
AcDbEntity
  8
DETAIL
100
AcDbCircle
 10
-585.199159936864
 20
352.067250200038
 30
0.0
 40
8.67847415711
100
AcDbArc
 50
-95.401776784949
 51
95.401776784955
1001
ACAD
1000
TCW40_DEV_WIDTH
1002
{
1040
-3.0
1002
}
  0
ARC
  5
14E
100
AcDbEntity
  8
DETAIL
100
AcDbCircle
 10
-584.681549060901
 20
325.980092231403
 30
0.0
 40
17.542502774919
100
AcDbArc
 50
95.441106184698
 51
126.879711558443
1001
ACAD
1000
TCW40_DEV_WIDTH
1002
{
1040
-3.0
1002
}
  0
ARC
  5
14F
100
AcDbEntity
  8
DETAIL
100
AcDbCircle
 10
-586.507407823401
 20
360.691169560747
 30
0.0
 40
17.263852811173
100
AcDbArc
 50
-117.247357372773
 51
-86.81054914583
1001
ACAD
1000
TCW40_DEV_WIDTH
1002
{
1040
-3.0
1002
}
  0
ARC
  5
150
100
AcDbEntity
  8
DETAIL
100
AcDbCircle
 10
-585.199159936864
 20
334.803618397517
 30
0.0
 40
8.67847415711
100
AcDbArc
 50
-95.401776784949
 51
95.401776784955
1001
ACAD
1000
TCW40_DEV_WIDTH
1002
{
1040
-3.0
1002
}
  0
ARC
  5
151
100
AcDbEntity
  8
DETAIL
100
AcDbCircle
 10
-586.178578466916
 20
343.415092459007
 30
0.0
 40
17.263852811174
100
AcDbArc
 50
-117.247357372773
 51
-86.81054914583
1001
ACAD
1000
TCW40_DEV_WIDTH
1002
{
1040
-3.0
1002
}
  0
ARC
  5
152
100
AcDbEntity
  8
DETAIL
100
AcDbCircle
 10
-584.352719704417
 20
308.704015129662
 30
0.0
 40
17.54250277492
100
AcDbArc
 50
95.441106184699
 51
126.879711558442
1001
ACAD
1000
TCW40_DEV_WIDTH
1002
{
1040
-3.0
1002
}
  0
ARC
  5
153
100
AcDbEntity
  8
DETAIL
100
AcDbCircle
 10
-585.199159936864
 20
317.527541295777
 30
0.0
 40
8.67847415711
100
AcDbArc
 50
-95.401776784949
 51
95.401776784955
1001
ACAD
1000
TCW40_DEV_WIDTH
1002
{
1040
-3.0
1002
}
  0
ARC
  5
154
100
AcDbEntity
  8
DETAIL
100
AcDbCircle
 10
-586.507407823401
 20
326.151460656486
 30
0.0
 40
17.263852811173
100
AcDbArc
 50
-117.247357372773
 51
-86.81054914583
1001
ACAD
1000
TCW40_DEV_WIDTH
1002
{
1040
-3.0
1002
}
  0
ARC
  5
155
100
AcDbEntity
  8
DETAIL
100
AcDbCircle
 10
-610.228873519968
 20
344.530786366201
 30
0.0
 40
10.748578354508
100
AcDbArc
 50
-171.6893345141
 51
-91.841460794414
1001
ACAD
1000
TCW40_DEV_WIDTH
1002
{
1040
-3.0
1002
}
  0
ARC
  5
156
100
AcDbEntity
  8
DETAIL
100
AcDbCircle
 10
-610.616121438911
 20
355.942088027701
 30
0.0
 40
22.16288599096
100
AcDbArc
 50
-91.592194131624
 51
-70.084334385074
1001
ACAD
1000
TCW40_DEV_WIDTH
1002
{
1040
-3.0
1002
}
  0
ARC
  5
157
100
AcDbEntity
  8
DETAIL
100
AcDbCircle
 10
-609.489205504909
 20
311.613561191207
 30
0.0
 40
22.16288599096
100
AcDbArc
 50
70.084334385076
 51
91.592194131624
1001
ACAD
1000
TCW40_DEV_WIDTH
1002
{
1040
-3.0
1002
}
  0
ARC
  5
158
100
AcDbEntity
  8
DETAIL
100
AcDbCircle
 10
-610.287292082427
 20
338.666010925961
 30
0.0
 40
22.16288599096
100
AcDbArc
 50
-91.592194131625
 51
-70.084334385075
1001
ACAD
1000
TCW40_DEV_WIDTH
1002
{
1040
-3.0
1002
}
  0
ARC
  5
159
100
AcDbEntity
  8
DETAIL
100
AcDbCircle
 10
-610.226129444587
 20
327.257839841377
 30
0.0
 40
10.751746448194
100
AcDbArc
 50
-171.674940567349
 51
-91.847401517734
1001
ACAD
1000
TCW40_DEV_WIDTH
1002
{
1040
-3.0
1002
}
  0
ARC
  5
15A
100
AcDbEntity
  8
DETAIL
100
AcDbCircle
 10
-609.762651626255
 20
322.094454356397
 30
0.0
 40
11.673077811176
100
AcDbArc
 50
89.339582370277
 51
162.00272646734
1001
ACAD
1000
TCW40_DEV_WIDTH
1002
{
1040
-3.0
1002
}
  0
LINE
  5
15B
100
AcDbEntity
  8
DETAIL
100
AcDbLine
 10
-602.737801335441
 20
317.828575745271
 30
0.0
 11
-594.880625030253
 21
322.736214282265
 31
0.0
1001
ACAD
1000
TCW40_DEV_WIDTH
1002
{
1040
-3.0
1002
}
  0
LINE
  5
15C
100
AcDbEntity
  8
DETAIL
100
AcDbLine
 10
-603.066630691925
 20
335.104652847011
 30
0.0
 11
-595.209454386737
 21
340.012291384006
 31
0.0
1001
ACAD
1000
TCW40_DEV_WIDTH
1002
{
1040
-3.0
1002
}
  0
LINE
  5
15D
100
AcDbEntity
  8
DETAIL
100
AcDbLine
 10
-601.939714757923
 20
332.450996371897
 30
0.0
 11
-594.082538452735
 21
328.066866814704
 31
0.0
1001
ACAD
1000
TCW40_DEV_WIDTH
1002
{
1040
-3.0
1002
}
  0
ARC
  5
15E
100
AcDbEntity
  8
DETAIL
100
AcDbCircle
 10
-609.818034861393
 20
328.889638292947
 30
0.0
 40
22.16288599096
100
AcDbArc
 50
70.084334385075
 51
91.592194131624
1001
ACAD
1000
TCW40_DEV_WIDTH
1002
{
1040
-3.0
1002
}
  0
ARC
  5
15F
100
AcDbEntity
  8
DETAIL
100
AcDbCircle
 10
-610.287292082427
 20
373.205719830222
 30
0.0
 40
22.16288599096
100
AcDbArc
 50
-91.592194131625
 51
-70.084334385075
1001
ACAD
1000
TCW40_DEV_WIDTH
1002
{
1040
-3.0
1002
}
  0
ARC
  5
160
100
AcDbEntity
  8
DETAIL
100
AcDbCircle
 10
-610.226129444587
 20
361.797548745638
 30
0.0
 40
10.751746448194
100
AcDbArc
 50
-171.674940567348
 51
-91.847401517734
1001
ACAD
1000
TCW40_DEV_WIDTH
1002
{
1040
-3.0
1002
}
  0
ARC
  5
161
100
AcDbEntity
  8
DETAIL
100
AcDbCircle
 10
-609.765278922571
 20
339.374165771919
 30
0.0
 40
11.669456464717
100
AcDbArc
 50
89.333979885284
 51
162.015711812655
1001
ACAD
1000
TCW40_DEV_WIDTH
1002
{
1040
-3.0
1002
}
  0
ARC
  5
162
100
AcDbEntity
  8
DETAIL
100
AcDbCircle
 10
-609.762651626255
 20
356.634163260658
 30
0.0
 40
11.673077811175
100
AcDbArc
 50
89.339582370277
 51
162.002726467342
1001
ACAD
1000
TCW40_DEV_WIDTH
1002
{
1040
-3.0
1002
}
  0
LINE
  5
163
100
AcDbEntity
  8
DETAIL
100
AcDbLine
 10
-602.737801335441
 20
352.368284649531
 30
0.0
 11
-594.880625030253
 21
357.275923186525
 31
0.0
1001
ACAD
1000
TCW40_DEV_WIDTH
1002
{
1040
-3.0
1002
}
  0
LINE
  5
164
100
AcDbEntity
  8
DETAIL
100
AcDbLine
 10
-602.268544114407
 20
349.727073473637
 30
0.0
 11
-594.411367809219
 21
345.342943916444
 31
0.0
1001
ACAD
1000
TCW40_DEV_WIDTH
1002
{
1040
-3.0
1002
}
  0
ARC
  5
165
100
AcDbEntity
  8
DETAIL
100
AcDbCircle
 10
-610.001025218348
 20
305.618932053443
 30
0.0
 40
10.890579595957
100
AcDbArc
 50
88.037669708941
 51
165.000804908552
1001
ACAD
1000
TCW40_DEV_WIDTH
1002
{
1040
-3.0
1002
}
  0
ARC
  5
166
100
AcDbEntity
  8
DETAIL
100
AcDbCircle
 10
-584.681549060901
 20
291.440383327143
 30
0.0
 40
17.542502774919
100
AcDbArc
 50
95.441106184698
 51
126.879711558442
1001
ACAD
1000
TCW40_DEV_WIDTH
1002
{
1040
-3.0
1002
}
  0
ARC
  5
167
100
AcDbEntity
  8
DETAIL
100
AcDbCircle
 10
-586.507407823401
 20
326.151460656486
 30
0.0
 40
17.263852811173
100
AcDbArc
 50
-117.247357372773
 51
-86.81054914583
1001
ACAD
1000
TCW40_DEV_WIDTH
1002
{
1040
-3.0
1002
}
  0
ARC
  5
168
100
AcDbEntity
  8
DETAIL
100
AcDbCircle
 10
-585.199159936864
 20
300.263909493257
 30
0.0
 40
8.67847415711
100
AcDbArc
 50
-95.401776784949
 51
95.401776784956
1001
ACAD
1000
TCW40_DEV_WIDTH
1002
{
1040
-3.0
1002
}
  0
ARC
  5
169
100
AcDbEntity
  8
DETAIL
100
AcDbCircle
 10
-585.740123523672
 20
308.806390322503
 30
0.0
 40
17.263852811174
100
AcDbArc
 50
-117.247357372772
 51
-86.810549145829
1001
ACAD
1000
TCW40_DEV_WIDTH
1002
{
1040
-3.0
1002
}
  0
ARC
  5
16A
100
AcDbEntity
  8
DETAIL
100
AcDbCircle
 10
-610.616121438911
 20
321.402379123441
 30
0.0
 40
22.16288599096
100
AcDbArc
 50
-91.592194131624
 51
-70.084334385076
1001
ACAD
1000
TCW40_DEV_WIDTH
1002
{
1040
-3.0
1002
}
  0
ARC
  5
16B
100
AcDbEntity
  8
DETAIL
100
AcDbCircle
 10
-609.050750561665
 20
277.004859054702
 30
0.0
 40
22.162885990961
100
AcDbArc
 50
70.084334385075
 51
91.592194131624
1001
ACAD
1000
TCW40_DEV_WIDTH
1002
{
1040
-3.0
1002
}
  0
ARC
  5
16C
100
AcDbEntity
  8
DETAIL
100
AcDbCircle
 10
-610.488766187159
 20
309.318065681234
 30
0.0
 40
10.070365801452
100
AcDbArc
 50
-174.98342688721
 51
-90.477781065748
1001
ACAD
1000
TCW40_DEV_WIDTH
1002
{
1040
-3.0
1002
}
  0
LINE
  5
16D
100
AcDbEntity
  8
DETAIL
100
AcDbLine
 10
-603.066630691925
 20
300.56494394275
 30
0.0
 11
-595.209454386737
 21
305.472582479744
 31
0.0
1001
ACAD
1000
TCW40_DEV_WIDTH
1002
{
1040
-3.0
1002
}
  0
LINE
  5
16E
100
AcDbEntity
  8
DETAIL
100
AcDbLine
 10
-601.501259814678
 20
297.842294235393
 30
0.0
 11
-593.644083509491
 21
293.4581646782
 31
0.0
1001
ACAD
1000
TCW40_DEV_WIDTH
1002
{
1040
-3.0
1002
}
  0
ARC
  5
16F
100
AcDbEntity
  8
DETAIL
100
AcDbCircle
 10
-609.818034861393
 20
294.349929388686
 30
0.0
 40
22.16288599096
100
AcDbArc
 50
70.084334385075
 51
91.592194131624
1001
ACAD
1000
TCW40_DEV_WIDTH
1002
{
1040
-3.0
1002
}
  0
LINE
  5
170
100
AcDbEntity
  8
DETAIL
100
AcDbLine
 10
-602.268544114407
 20
315.187364569376
 30
0.0
 11
-594.411367809219
 21
310.803235012183
 31
0.0
1001
ACAD
1000
TCW40_DEV_WIDTH
1002
{
1040
-3.0
1002
}
  0
ARC
  5
171
100
AcDbEntity
  8
DETAIL
100
AcDbCircle
 10
-610.039476300772
 20
288.274995290015
 30
0.0
 40
10.890579595957
100
AcDbArc
 50
88.037669708942
 51
165.000804908549
1001
ACAD
1000
TCW40_DEV_WIDTH
1002
{
1040
-3.0
1002
}
  0
ARC
  5
172
100
AcDbEntity
  8
DETAIL
100
AcDbCircle
 10
-584.720000143326
 20
274.096446563715
 30
0.0
 40
17.542502774919
100
AcDbArc
 50
95.441106184698
 51
126.879711558443
1001
ACAD
1000
TCW40_DEV_WIDTH
1002
{
1040
-3.0
1002
}
  0
ARC
  5
173
100
AcDbEntity
  8
DETAIL
100
AcDbCircle
 10
-585.237611019288
 20
282.919972729829
 30
0.0
 40
8.67847415711
100
AcDbArc
 50
-95.401776784951
 51
95.401776784956
1001
ACAD
1000
TCW40_DEV_WIDTH
1002
{
1040
-3.0
1002
}
  0
ARC
  5
174
100
AcDbEntity
  8
DETAIL
100
AcDbCircle
 10
-585.778574606096
 20
291.462453559076
 30
0.0
 40
17.263852811173
100
AcDbArc
 50
-117.247357372773
 51
-86.81054914583
1001
ACAD
1000
TCW40_DEV_WIDTH
1002
{
1040
-3.0
1002
}
  0
ARC
  5
175
100
AcDbEntity
  8
DETAIL
100
AcDbCircle
 10
-610.654572521335
 20
304.058442360014
 30
0.0
 40
22.162885990961
100
AcDbArc
 50
-91.592194131625
 51
-70.084334385075
1001
ACAD
1000
TCW40_DEV_WIDTH
1002
{
1040
-3.0
1002
}
  0
ARC
  5
176
100
AcDbEntity
  8
DETAIL
100
AcDbCircle
 10
-609.089201644089
 20
259.660922291276
 30
0.0
 40
22.16288599096
100
AcDbArc
 50
70.084334385075
 51
91.592194131625
1001
ACAD
1000
TCW40_DEV_WIDTH
1002
{
1040
-3.0
1002
}
  0
ARC
  5
177
100
AcDbEntity
  8
DETAIL
100
AcDbCircle
 10
-610.527217269583
 20
291.974128917807
 30
0.0
 40
10.070365801451
100
AcDbArc
 50
-174.983426887209
 51
-90.477781065748
1001
ACAD
1000
TCW40_DEV_WIDTH
1002
{
1040
-3.0
1002
}
  0
LINE
  5
178
100
AcDbEntity
  8
DETAIL
100
AcDbLine
 10
-603.105081774349
 20
283.221007179323
 30
0.0
 11
-595.247905469161
 21
288.128645716318
 31
0.0
1001
ACAD
1000
TCW40_DEV_WIDTH
1002
{
1040
-3.0
1002
}
  0
LINE
  5
179
100
AcDbEntity
  8
DETAIL
100
AcDbLine
 10
-601.539710897103
 20
280.498357471966
 30
0.0
 11
-593.682534591915
 21
276.114227914773
 31
0.0
1001
ACAD
1000
TCW40_DEV_WIDTH
1002
{
1040
-3.0
1002
}
  0
ARC
  5
17A
100
AcDbEntity
  8
DETAIL
100
AcDbCircle
 10
-609.163766072003
 20
269.303959378187
 30
0.0
 40
12.519586708632
100
AcDbArc
 50
90.620335952127
 51
159.163723124488
1001
ACAD
1000
TCW40_DEV_WIDTH
1002
{
1040
-3.0
1002
}
  0
ARC
  5
17B
100
AcDbEntity
  8
DETAIL
100
AcDbCircle
 10
-584.352755541681
 20
256.760070701457
 30
0.0
 40
17.54250277492
100
AcDbArc
 50
95.441106184698
 51
126.879711558443
1001
ACAD
1000
TCW40_DEV_WIDTH
1002
{
1040
-3.0
1002
}
  0
ARC
  5
17C
100
AcDbEntity
  8
DETAIL
100
AcDbCircle
 10
-585.175752665473
 20
265.583596867572
 30
0.0
 40
8.65506688572
100
AcDbArc
 50
-93.388710578577
 51
93.38871057859
1001
ACAD
1000
TCW40_DEV_WIDTH
1002
{
1040
-3.0
1002
}
  0
ARC
  5
17D
100
AcDbEntity
  8
DETAIL
100
AcDbCircle
 10
-585.411330004452
 20
274.126077696818
 30
0.0
 40
17.263852811174
100
AcDbArc
 50
-117.247357372773
 51
-86.81054914583
1001
ACAD
1000
TCW40_DEV_WIDTH
1002
{
1040
-3.0
1002
}
  0
ARC
  5
17E
100
AcDbEntity
  8
DETAIL
100
AcDbCircle
 10
-610.28732791969
 20
286.722066497755
 30
0.0
 40
22.16288599096
100
AcDbArc
 50
-91.592194131625
 51
-70.084334385075
1001
ACAD
1000
TCW40_DEV_WIDTH
1002
{
1040
-3.0
1002
}
  0
ARC
  5
17F
100
AcDbEntity
  8
DETAIL
100
AcDbCircle
 10
-608.721957042444
 20
242.324546429017
 30
0.0
 40
22.162885990961
100
AcDbArc
 50
70.084334385075
 51
91.592194131624
1001
ACAD
1000
TCW40_DEV_WIDTH
1002
{
1040
-3.0
1002
}
  0
ARC
  5
180
100
AcDbEntity
  8
DETAIL
100
AcDbCircle
 10
-609.605636777938
 20
276.037546427891
 30
0.0
 40
11.48755672473
100
AcDbArc
 50
-168.550207023196
 51
-93.185301103699
1001
ACAD
1000
TCW40_DEV_WIDTH
1002
{
1040
-3.0
1002
}
  0
LINE
  5
181
100
AcDbEntity
  8
DETAIL
100
AcDbLine
 10
-602.737837172704
 20
265.884631317064
 30
0.0
 11
-594.880660867517
 21
270.792269854059
 31
0.0
1001
ACAD
1000
TCW40_DEV_WIDTH
1002
{
1040
-3.0
1002
}
  0
LINE
  5
182
100
AcDbEntity
  8
DETAIL
100
AcDbLine
 10
-601.172466295458
 20
263.161981609707
 30
0.0
 11
-593.31528999027
 21
258.777852052514
 31
0.0
1001
ACAD
1000
TCW40_DEV_WIDTH
1002
{
1040
-3.0
1002
}
  0
ARC
  5
183
100
AcDbEntity
  8
DETAIL
100
AcDbCircle
 10
-609.233402244454
 20
252.060279186867
 30
0.0
 40
12.419034852619
100
AcDbArc
 50
90.481478183689
 51
159.481738076944
1001
ACAD
1000
TCW40_DEV_WIDTH
1002
{
1040
-3.0
1002
}
  0
ARC
  5
184
100
AcDbEntity
  8
DETAIL
100
AcDbCircle
 10
-584.391206624105
 20
239.416133938029
 30
0.0
 40
17.542502774919
100
AcDbArc
 50
95.441106184698
 51
126.879711558441
1001
ACAD
1000
TCW40_DEV_WIDTH
1002
{
1040
-3.0
1002
}
  0
ARC
  5
185
100
AcDbEntity
  8
DETAIL
100
AcDbCircle
 10
-585.1779699921
 20
248.239660104144
 30
0.0
 40
8.657284212346
100
AcDbArc
 50
-8.369955774635
 51
93.62809481171
1001
ACAD
1000
TCW40_DEV_WIDTH
1002
{
1040
-3.0
1002
}
  0
ARC
  5
186
100
AcDbEntity
  8
DETAIL
100
AcDbCircle
 10
-610.325779002115
 20
269.378129734328
 30
0.0
 40
22.162885990961
100
AcDbArc
 50
-91.592194131625
 51
-70.084334385075
1001
ACAD
1000
TCW40_DEV_WIDTH
1002
{
1040
-3.0
1002
}
  0
ARC
  5
187
100
AcDbEntity
  8
DETAIL
100
AcDbCircle
 10
-609.678326144451
 20
258.607152114065
 30
0.0
 40
11.39936814879
100
AcDbArc
 50
-168.90359029388
 51
-93.037623724911
1001
ACAD
1000
TCW40_DEV_WIDTH
1002
{
1040
-3.0
1002
}
  0
LINE
  5
188
100
AcDbEntity
  8
DETAIL
100
AcDbLine
 10
-602.776288255129
 20
248.540694553638
 30
0.0
 11
-594.919111949941
 21
253.448333090631
 31
0.0
1001
ACAD
1000
TCW40_DEV_WIDTH
1002
{
1040
-3.0
1002
}
  0
ARC
  5
189
100
AcDbEntity
  8
DETAIL
100
AcDbCircle
 10
-586.178578466917
 20
498.937306720387
 30
0.0
 40
17.263852811174
100
AcDbArc
 50
-117.247357372773
 51
-86.81054914583
1001
ACAD
1000
TCW40_DEV_WIDTH
1002
{
1040
-3.0
1002
}
  0
ARC
  5
18A
100
AcDbEntity
  8
DETAIL
100
AcDbCircle
 10
-584.352719704419
 20
464.226229391043
 30
0.0
 40
17.542502774919
100
AcDbArc
 50
95.441106184698
 51
126.879711558443
1001
ACAD
1000
TCW40_DEV_WIDTH
1002
{
1040
-3.0
1002
}
  0
ARC
  5
18B
100
AcDbEntity
  8
DETAIL
100
AcDbCircle
 10
-585.199159936865
 20
473.049755557157
 30
0.0
 40
8.67847415711
100
AcDbArc
 50
-95.401776784949
 51
95.401776784955
1001
ACAD
1000
TCW40_DEV_WIDTH
1002
{
1040
-3.0
1002
}
  0
ARC
  5
18C
100
AcDbEntity
  8
DETAIL
100
AcDbCircle
 10
-609.48920550491
 20
467.135775452587
 30
0.0
 40
22.16288599096
100
AcDbArc
 50
70.084334385075
 51
91.592194131624
1001
ACAD
1000
TCW40_DEV_WIDTH
1002
{
1040
-3.0
1002
}
  0
ARC
  5
18D
100
AcDbEntity
  8
DETAIL
100
AcDbCircle
 10
-610.287292082428
 20
494.188225187341
 30
0.0
 40
22.16288599096
100
AcDbArc
 50
-91.592194131624
 51
-70.084334385076
1001
ACAD
1000
TCW40_DEV_WIDTH
1002
{
1040
-3.0
1002
}
  0
ARC
  5
18E
100
AcDbEntity
  8
DETAIL
100
AcDbCircle
 10
-610.226129444588
 20
482.780054102757
 30
0.0
 40
10.751746448194
100
AcDbArc
 50
-171.674940567349
 51
-91.847401517735
1001
ACAD
1000
TCW40_DEV_WIDTH
1002
{
1040
-3.0
1002
}
  0
ARC
  5
18F
100
AcDbEntity
  8
DETAIL
100
AcDbCircle
 10
-609.762651626255
 20
477.616668617778
 30
0.0
 40
11.673077811175
100
AcDbArc
 50
89.339582370277
 51
162.002726467342
1001
ACAD
1000
TCW40_DEV_WIDTH
1002
{
1040
-3.0
1002
}
  0
LINE
  5
190
100
AcDbEntity
  8
DETAIL
100
AcDbLine
 10
-602.737801335442
 20
473.350790006651
 30
0.0
 11
-594.880625030254
 21
478.258428543645
 31
0.0
1001
ACAD
1000
TCW40_DEV_WIDTH
1002
{
1040
-3.0
1002
}
  0
LINE
  5
191
100
AcDbEntity
  8
DETAIL
100
AcDbLine
 10
-601.939714757924
 20
487.973210633276
 30
0.0
 11
-594.082538452736
 21
483.589081076084
 31
0.0
1001
ACAD
1000
TCW40_DEV_WIDTH
1002
{
1040
-3.0
1002
}
  0
ARC
  5
192
100
AcDbEntity
  8
DETAIL
100
AcDbCircle
 10
-586.34101250068
 20
516.200938522907
 30
0.0
 40
17.263852811173
100
AcDbArc
 50
-117.247357372773
 51
-86.81054914583
1001
ACAD
1000
TCW40_DEV_WIDTH
1002
{
1040
-3.0
1002
}
  0
ARC
  5
193
100
AcDbEntity
  8
DETAIL
100
AcDbCircle
 10
-584.515153738181
 20
481.489861193563
 30
0.0
 40
17.542502774919
100
AcDbArc
 50
95.441106184698
 51
126.879711558443
1001
ACAD
1000
TCW40_DEV_WIDTH
1002
{
1040
-3.0
1002
}
  0
ARC
  5
194
100
AcDbEntity
  8
DETAIL
100
AcDbCircle
 10
-585.361593970628
 20
490.313387359677
 30
0.0
 40
8.67847415711
100
AcDbArc
 50
-95.401776784949
 51
95.401776784955
1001
ACAD
1000
TCW40_DEV_WIDTH
1002
{
1040
-3.0
1002
}
  0
ARC
  5
195
100
AcDbEntity
  8
DETAIL
100
AcDbCircle
 10
-609.651639538672
 20
484.399407255107
 30
0.0
 40
22.16288599096
100
AcDbArc
 50
70.084334385076
 51
91.592194131625
1001
ACAD
1000
TCW40_DEV_WIDTH
1002
{
1040
-3.0
1002
}
  0
ARC
  5
196
100
AcDbEntity
  8
DETAIL
100
AcDbCircle
 10
-610.449726116191
 20
511.451856989861
 30
0.0
 40
22.16288599096
100
AcDbArc
 50
-91.592194131625
 51
-70.084334385075
1001
ACAD
1000
TCW40_DEV_WIDTH
1002
{
1040
-3.0
1002
}
  0
ARC
  5
197
100
AcDbEntity
  8
DETAIL
100
AcDbCircle
 10
-610.38856347835
 20
500.043685905277
 30
0.0
 40
10.751746448194
100
AcDbArc
 50
-171.674940567352
 51
-91.847401517735
1001
ACAD
1000
TCW40_DEV_WIDTH
1002
{
1040
-3.0
1002
}
  0
ARC
  5
198
100
AcDbEntity
  8
DETAIL
100
AcDbCircle
 10
-609.925085660018
 20
494.880300420297
 30
0.0
 40
11.673077811176
100
AcDbArc
 50
89.339582370277
 51
162.002726467343
1001
ACAD
1000
TCW40_DEV_WIDTH
1002
{
1040
-3.0
1002
}
  0
LINE
  5
199
100
AcDbEntity
  8
DETAIL
100
AcDbLine
 10
-602.900235369204
 20
490.614421809171
 30
0.0
 11
-595.043059064017
 21
495.522060346165
 31
0.0
1001
ACAD
1000
TCW40_DEV_WIDTH
1002
{
1040
-3.0
1002
}
  0
LINE
  5
19A
100
AcDbEntity
  8
DETAIL
100
AcDbLine
 10
-602.102148791686
 20
505.236842435797
 30
0.0
 11
-594.244972486499
 21
500.852712878605
 31
0.0
1001
ACAD
1000
TCW40_DEV_WIDTH
1002
{
1040
-3.0
1002
}
  0
ARC
  5
19B
100
AcDbEntity
  8
DETAIL
100
AcDbCircle
 10
-586.178578466916
 20
533.460211932881
 30
0.0
 40
17.263852811173
100
AcDbArc
 50
-117.247357372772
 51
-86.81054914583
1001
ACAD
1000
TCW40_DEV_WIDTH
1002
{
1040
-3.0
1002
}
  0
ARC
  5
19C
100
AcDbEntity
  8
DETAIL
100
AcDbCircle
 10
-584.352719704417
 20
498.749134603538
 30
0.0
 40
17.54250277492
100
AcDbArc
 50
95.441106184699
 51
126.879711558444
1001
ACAD
1000
TCW40_DEV_WIDTH
1002
{
1040
-3.0
1002
}
  0
ARC
  5
19D
100
AcDbEntity
  8
DETAIL
100
AcDbCircle
 10
-585.199159936864
 20
507.572660769652
 30
0.0
 40
8.67847415711
100
AcDbArc
 50
-95.401776784949
 51
95.401776784956
1001
ACAD
1000
TCW40_DEV_WIDTH
1002
{
1040
-3.0
1002
}
  0
ARC
  5
19E
100
AcDbEntity
  8
DETAIL
100
AcDbCircle
 10
-609.489205504909
 20
501.658680665081
 30
0.0
 40
22.162885990961
100
AcDbArc
 50
70.084334385075
 51
91.592194131624
1001
ACAD
1000
TCW40_DEV_WIDTH
1002
{
1040
-3.0
1002
}
  0
ARC
  5
19F
100
AcDbEntity
  8
DETAIL
100
AcDbCircle
 10
-610.287292082427
 20
528.711130399836
 30
0.0
 40
22.16288599096
100
AcDbArc
 50
-91.592194131624
 51
-70.084334385075
1001
ACAD
1000
TCW40_DEV_WIDTH
1002
{
1040
-3.0
1002
}
  0
ARC
  5
1A0
100
AcDbEntity
  8
DETAIL
100
AcDbCircle
 10
-610.226129444587
 20
517.302959315252
 30
0.0
 40
10.751746448194
100
AcDbArc
 50
-171.674940567347
 51
-91.847401517734
1001
ACAD
1000
TCW40_DEV_WIDTH
1002
{
1040
-3.0
1002
}
  0
ARC
  5
1A1
100
AcDbEntity
  8
DETAIL
100
AcDbCircle
 10
-609.762651626255
 20
512.139573830272
 30
0.0
 40
11.673077811175
100
AcDbArc
 50
89.339582370277
 51
162.002726467345
1001
ACAD
1000
TCW40_DEV_WIDTH
1002
{
1040
-3.0
1002
}
  0
LINE
  5
1A2
100
AcDbEntity
  8
DETAIL
100
AcDbLine
 10
-602.737801335441
 20
507.873695219145
 30
0.0
 11
-594.880625030253
 21
512.781333756139
 31
0.0
1001
ACAD
1000
TCW40_DEV_WIDTH
1002
{
1040
-3.0
1002
}
  0
LINE
  5
1A3
100
AcDbEntity
  8
DETAIL
100
AcDbLine
 10
-601.939714757923
 20
522.496115845771
 30
0.0
 11
-594.082538452735
 21
518.111986288579
 31
0.0
1001
ACAD
1000
TCW40_DEV_WIDTH
1002
{
1040
-3.0
1002
}
  0
ARC
  5
1A4
100
AcDbEntity
  8
DETAIL
100
AcDbCircle
 10
-586.178578466916
 20
550.739165679061
 30
0.0
 40
17.263852811174
100
AcDbArc
 50
-117.247357372773
 51
-86.81054914583
1001
ACAD
1000
TCW40_DEV_WIDTH
1002
{
1040
-3.0
1002
}
  0
ARC
  5
1A5
100
AcDbEntity
  8
DETAIL
100
AcDbCircle
 10
-584.352719704417
 20
516.028088349717
 30
0.0
 40
17.542502774919
100
AcDbArc
 50
95.441106184699
 51
126.879711558443
1001
ACAD
1000
TCW40_DEV_WIDTH
1002
{
1040
-3.0
1002
}
  0
ARC
  5
1A6
100
AcDbEntity
  8
DETAIL
100
AcDbCircle
 10
-585.199159936864
 20
524.851614515831
 30
0.0
 40
8.678474157111
100
AcDbArc
 50
-95.401776784949
 51
95.401776784956
1001
ACAD
1000
TCW40_DEV_WIDTH
1002
{
1040
-3.0
1002
}
  0
ARC
  5
1A7
100
AcDbEntity
  8
DETAIL
100
AcDbCircle
 10
-609.489205504909
 20
518.937634411261
 30
0.0
 40
22.16288599096
100
AcDbArc
 50
70.084334385075
 51
91.592194131624
1001
ACAD
1000
TCW40_DEV_WIDTH
1002
{
1040
-3.0
1002
}
  0
ARC
  5
1A8
100
AcDbEntity
  8
DETAIL
100
AcDbCircle
 10
-610.287292082427
 20
545.990084146016
 30
0.0
 40
22.16288599096
100
AcDbArc
 50
-91.592194131624
 51
-70.084334385076
1001
ACAD
1000
TCW40_DEV_WIDTH
1002
{
1040
-3.0
1002
}
  0
ARC
  5
1A9
100
AcDbEntity
  8
DETAIL
100
AcDbCircle
 10
-610.226129444587
 20
534.581913061431
 30
0.0
 40
10.751746448194
100
AcDbArc
 50
-171.67494056735
 51
-91.847401517734
1001
ACAD
1000
TCW40_DEV_WIDTH
1002
{
1040
-3.0
1002
}
  0
ARC
  5
1AA
100
AcDbEntity
  8
DETAIL
100
AcDbCircle
 10
-609.762651626255
 20
529.418527576452
 30
0.0
 40
11.673077811175
100
AcDbArc
 50
89.339582370277
 51
162.002726467345
1001
ACAD
1000
TCW40_DEV_WIDTH
1002
{
1040
-3.0
1002
}
  0
LINE
  5
1AB
100
AcDbEntity
  8
DETAIL
100
AcDbLine
 10
-602.737801335441
 20
525.152648965325
 30
0.0
 11
-594.880625030253
 21
530.060287502319
 31
0.0
1001
ACAD
1000
TCW40_DEV_WIDTH
1002
{
1040
-3.0
1002
}
  0
LINE
  5
1AC
100
AcDbEntity
  8
DETAIL
100
AcDbLine
 10
-601.939714757923
 20
539.775069591951
 30
0.0
 11
-594.082538452735
 21
535.390940034758
 31
0.0
1001
ACAD
1000
TCW40_DEV_WIDTH
1002
{
1040
-3.0
1002
}
  0
ARC
  5
1AD
100
AcDbEntity
  8
DETAIL
100
AcDbCircle
 10
-586.178578466916
 20
567.94036053527
 30
0.0
 40
17.263852811174
100
AcDbArc
 50
-117.247357372772
 51
-86.81054914583
1001
ACAD
1000
TCW40_DEV_WIDTH
1002
{
1040
-3.0
1002
}
  0
ARC
  5
1AE
100
AcDbEntity
  8
DETAIL
100
AcDbCircle
 10
-584.352719704417
 20
533.229283205925
 30
0.0
 40
17.542502774919
100
AcDbArc
 50
95.441106184699
 51
126.879711558443
1001
ACAD
1000
TCW40_DEV_WIDTH
1002
{
1040
-3.0
1002
}
  0
ARC
  5
1AF
100
AcDbEntity
  8
DETAIL
100
AcDbCircle
 10
-585.199159936864
 20
542.05280937204
 30
0.0
 40
8.67847415711
100
AcDbArc
 50
-95.401776784949
 51
95.401776784956
1001
ACAD
1000
TCW40_DEV_WIDTH
1002
{
1040
-3.0
1002
}
  0
ARC
  5
1B0
100
AcDbEntity
  8
DETAIL
100
AcDbCircle
 10
-609.489205504909
 20
536.138829267469
 30
0.0
 40
22.16288599096
100
AcDbArc
 50
70.084334385076
 51
91.592194131624
1001
ACAD
1000
TCW40_DEV_WIDTH
1002
{
1040
-3.0
1002
}
  0
ARC
  5
1B1
100
AcDbEntity
  8
DETAIL
100
AcDbCircle
 10
-610.287292082427
 20
563.191279002224
 30
0.0
 40
22.16288599096
100
AcDbArc
 50
-91.592194131624
 51
-70.084334385075
1001
ACAD
1000
TCW40_DEV_WIDTH
1002
{
1040
-3.0
1002
}
  0
ARC
  5
1B2
100
AcDbEntity
  8
DETAIL
100
AcDbCircle
 10
-610.226129444587
 20
551.78310791764
 30
0.0
 40
10.751746448194
100
AcDbArc
 50
-171.674940567349
 51
-91.847401517734
1001
ACAD
1000
TCW40_DEV_WIDTH
1002
{
1040
-3.0
1002
}
  0
ARC
  5
1B3
100
AcDbEntity
  8
DETAIL
100
AcDbCircle
 10
-609.762651626255
 20
546.61972243266
 30
0.0
 40
11.673077811175
100
AcDbArc
 50
89.339582370277
 51
162.002726467344
1001
ACAD
1000
TCW40_DEV_WIDTH
1002
{
1040
-3.0
1002
}
  0
LINE
  5
1B4
100
AcDbEntity
  8
DETAIL
100
AcDbLine
 10
-602.737801335441
 20
542.353843821533
 30
0.0
 11
-594.880625030253
 21
547.261482358527
 31
0.0
1001
ACAD
1000
TCW40_DEV_WIDTH
1002
{
1040
-3.0
1002
}
  0
LINE
  5
1B5
100
AcDbEntity
  8
DETAIL
100
AcDbLine
 10
-601.939714757923
 20
556.976264448159
 30
0.0
 11
-594.082538452735
 21
552.592134890967
 31
0.0
1001
ACAD
1000
TCW40_DEV_WIDTH
1002
{
1040
-3.0
1002
}
  0
ARC
  5
1B6
100
AcDbEntity
  8
DETAIL
100
AcDbCircle
 10
-586.178578466916
 20
585.141797403922
 30
0.0
 40
17.263852811173
100
AcDbArc
 50
-117.247357372773
 51
-86.81054914583
1001
ACAD
1000
TCW40_DEV_WIDTH
1002
{
1040
-3.0
1002
}
  0
ARC
  5
1B7
100
AcDbEntity
  8
DETAIL
100
AcDbCircle
 10
-584.352719704417
 20
550.430720074578
 30
0.0
 40
17.54250277492
100
AcDbArc
 50
95.441106184699
 51
126.879711558443
1001
ACAD
1000
TCW40_DEV_WIDTH
1002
{
1040
-3.0
1002
}
  0
ARC
  5
1B8
100
AcDbEntity
  8
DETAIL
100
AcDbCircle
 10
-585.199159936864
 20
559.254246240692
 30
0.0
 40
8.67847415711
100
AcDbArc
 50
-95.401776784949
 51
95.401776784954
1001
ACAD
1000
TCW40_DEV_WIDTH
1002
{
1040
-3.0
1002
}
  0
ARC
  5
1B9
100
AcDbEntity
  8
DETAIL
100
AcDbCircle
 10
-609.489205504909
 20
553.340266136122
 30
0.0
 40
22.16288599096
100
AcDbArc
 50
70.084334385075
 51
91.592194131624
1001
ACAD
1000
TCW40_DEV_WIDTH
1002
{
1040
-3.0
1002
}
  0
ARC
  5
1BA
100
AcDbEntity
  8
DETAIL
100
AcDbCircle
 10
-610.287292082427
 20
580.392715870877
 30
0.0
 40
22.16288599096
100
AcDbArc
 50
-91.592194131624
 51
-70.084334385076
1001
ACAD
1000
TCW40_DEV_WIDTH
1002
{
1040
-3.0
1002
}
  0
ARC
  5
1BB
100
AcDbEntity
  8
DETAIL
100
AcDbCircle
 10
-610.226129444587
 20
568.984544786292
 30
0.0
 40
10.751746448194
100
AcDbArc
 50
-171.674940567347
 51
-91.847401517734
1001
ACAD
1000
TCW40_DEV_WIDTH
1002
{
1040
-3.0
1002
}
  0
ARC
  5
1BC
100
AcDbEntity
  8
DETAIL
100
AcDbCircle
 10
-609.762651626255
 20
563.821159301313
 30
0.0
 40
11.673077811175
100
AcDbArc
 50
89.339582370277
 51
162.002726467345
1001
ACAD
1000
TCW40_DEV_WIDTH
1002
{
1040
-3.0
1002
}
  0
LINE
  5
1BD
100
AcDbEntity
  8
DETAIL
100
AcDbLine
 10
-602.737801335441
 20
559.555280690186
 30
0.0
 11
-594.880625030253
 21
564.46291922718
 31
0.0
1001
ACAD
1000
TCW40_DEV_WIDTH
1002
{
1040
-3.0
1002
}
  0
LINE
  5
1BE
100
AcDbEntity
  8
DETAIL
100
AcDbLine
 10
-601.939714757923
 20
574.177701316812
 30
0.0
 11
-594.082538452735
 21
569.793571759619
 31
0.0
1001
ACAD
1000
TCW40_DEV_WIDTH
1002
{
1040
-3.0
1002
}
  0
ARC
  5
1BF
100
AcDbEntity
  8
DETAIL
100
AcDbCircle
 10
-586.178578466916
 20
602.406052538869
 30
0.0
 40
17.263852811173
100
AcDbArc
 50
-117.247357372772
 51
-86.81054914583
1001
ACAD
1000
TCW40_DEV_WIDTH
1002
{
1040
-3.0
1002
}
  0
ARC
  5
1C0
100
AcDbEntity
  8
DETAIL
100
AcDbCircle
 10
-584.352719704417
 20
567.694975209525
 30
0.0
 40
17.542502774919
100
AcDbArc
 50
95.441106184699
 51
126.879711558443
1001
ACAD
1000
TCW40_DEV_WIDTH
1002
{
1040
-3.0
1002
}
  0
ARC
  5
1C1
100
AcDbEntity
  8
DETAIL
100
AcDbCircle
 10
-585.199159936864
 20
576.51850137564
 30
0.0
 40
8.67847415711
100
AcDbArc
 50
-95.401776784949
 51
95.401776784956
1001
ACAD
1000
TCW40_DEV_WIDTH
1002
{
1040
-3.0
1002
}
  0
ARC
  5
1C2
100
AcDbEntity
  8
DETAIL
100
AcDbCircle
 10
-609.489205504909
 20
570.604521271069
 30
0.0
 40
22.16288599096
100
AcDbArc
 50
70.084334385075
 51
91.592194131624
1001
ACAD
1000
TCW40_DEV_WIDTH
1002
{
1040
-3.0
1002
}
  0
ARC
  5
1C3
100
AcDbEntity
  8
DETAIL
100
AcDbCircle
 10
-610.287292082427
 20
597.656971005824
 30
0.0
 40
22.16288599096
100
AcDbArc
 50
-91.592194131624
 51
-70.084334385076
1001
ACAD
1000
TCW40_DEV_WIDTH
1002
{
1040
-3.0
1002
}
  0
ARC
  5
1C4
100
AcDbEntity
  8
DETAIL
100
AcDbCircle
 10
-610.226129444587
 20
586.248799921239
 30
0.0
 40
10.751746448194
100
AcDbArc
 50
-171.674940567349
 51
-91.847401517734
1001
ACAD
1000
TCW40_DEV_WIDTH
1002
{
1040
-3.0
1002
}
  0
ARC
  5
1C5
100
AcDbEntity
  8
DETAIL
100
AcDbCircle
 10
-609.762651626255
 20
581.08541443626
 30
0.0
 40
11.673077811175
100
AcDbArc
 50
89.339582370277
 51
162.002726467343
1001
ACAD
1000
TCW40_DEV_WIDTH
1002
{
1040
-3.0
1002
}
  0
LINE
  5
1C6
100
AcDbEntity
  8
DETAIL
100
AcDbLine
 10
-602.737801335441
 20
576.819535825133
 30
0.0
 11
-594.880625030253
 21
581.727174362127
 31
0.0
1001
ACAD
1000
TCW40_DEV_WIDTH
1002
{
1040
-3.0
1002
}
  0
LINE
  5
1C7
100
AcDbEntity
  8
DETAIL
100
AcDbLine
 10
-601.939714757923
 20
591.441956451759
 30
0.0
 11
-594.082538452735
 21
587.057826894566
 31
0.0
1001
ACAD
1000
TCW40_DEV_WIDTH
1002
{
1040
-3.0
1002
}
  0
ARC
  5
1C8
100
AcDbEntity
  8
DETAIL
100
AcDbCircle
 10
-586.178578466916
 20
619.760356713825
 30
0.0
 40
17.263852811174
100
AcDbArc
 50
-117.247357372772
 51
-86.81054914583
1001
ACAD
1000
TCW40_DEV_WIDTH
1002
{
1040
-3.0
1002
}
  0
ARC
  5
1C9
100
AcDbEntity
  8
DETAIL
100
AcDbCircle
 10
-584.352719704417
 20
585.049279384481
 30
0.0
 40
17.542502774919
100
AcDbArc
 50
95.441106184699
 51
126.879711558443
1001
ACAD
1000
TCW40_DEV_WIDTH
1002
{
1040
-3.0
1002
}
  0
ARC
  5
1CA
100
AcDbEntity
  8
DETAIL
100
AcDbCircle
 10
-585.199159936864
 20
593.872805550595
 30
0.0
 40
8.67847415711
100
AcDbArc
 50
-95.401776784949
 51
95.401776784956
1001
ACAD
1000
TCW40_DEV_WIDTH
1002
{
1040
-3.0
1002
}
  0
ARC
  5
1CB
100
AcDbEntity
  8
DETAIL
100
AcDbCircle
 10
-609.489205504909
 20
587.958825446025
 30
0.0
 40
22.16288599096
100
AcDbArc
 50
70.084334385075
 51
91.592194131624
1001
ACAD
1000
TCW40_DEV_WIDTH
1002
{
1040
-3.0
1002
}
  0
ARC
  5
1CC
100
AcDbEntity
  8
DETAIL
100
AcDbCircle
 10
-610.287292082427
 20
615.011275180779
 30
0.0
 40
22.16288599096
100
AcDbArc
 50
-91.592194131624
 51
-70.084334385075
1001
ACAD
1000
TCW40_DEV_WIDTH
1002
{
1040
-3.0
1002
}
  0
ARC
  5
1CD
100
AcDbEntity
  8
DETAIL
100
AcDbCircle
 10
-610.226129444587
 20
603.603104096195
 30
0.0
 40
10.751746448194
100
AcDbArc
 50
-171.674940567349
 51
-91.847401517734
1001
ACAD
1000
TCW40_DEV_WIDTH
1002
{
1040
-3.0
1002
}
  0
ARC
  5
1CE
100
AcDbEntity
  8
DETAIL
100
AcDbCircle
 10
-609.762651626255
 20
598.439718611216
 30
0.0
 40
11.673077811175
100
AcDbArc
 50
89.339582370277
 51
162.002726467345
1001
ACAD
1000
TCW40_DEV_WIDTH
1002
{
1040
-3.0
1002
}
  0
LINE
  5
1CF
100
AcDbEntity
  8
DETAIL
100
AcDbLine
 10
-602.737801335441
 20
594.173840000089
 30
0.0
 11
-594.880625030253
 21
599.081478537083
 31
0.0
1001
ACAD
1000
TCW40_DEV_WIDTH
1002
{
1040
-3.0
1002
}
  0
LINE
  5
1D0
100
AcDbEntity
  8
DETAIL
100
AcDbLine
 10
-601.939714757923
 20
608.796260626715
 30
0.0
 11
-594.082538452735
 21
604.412131069522
 31
0.0
1001
ACAD
1000
TCW40_DEV_WIDTH
1002
{
1040
-3.0
1002
}
  0
ARC
  5
1D1
100
AcDbEntity
  8
DETAIL
100
AcDbCircle
 10
-586.178578466916
 20
636.955288404605
 30
0.0
 40
17.263852811174
100
AcDbArc
 50
-117.247357372773
 51
-86.81054914583
1001
ACAD
1000
TCW40_DEV_WIDTH
1002
{
1040
-3.0
1002
}
  0
ARC
  5
1D2
100
AcDbEntity
  8
DETAIL
100
AcDbCircle
 10
-584.352719704417
 20
602.24421107526
 30
0.0
 40
17.54250277492
100
AcDbArc
 50
95.441106184699
 51
126.879711558443
1001
ACAD
1000
TCW40_DEV_WIDTH
1002
{
1040
-3.0
1002
}
  0
ARC
  5
1D3
100
AcDbEntity
  8
DETAIL
100
AcDbCircle
 10
-585.199159936864
 20
611.067737241375
 30
0.0
 40
8.67847415711
100
AcDbArc
 50
-95.401776784949
 51
95.401776784956
1001
ACAD
1000
TCW40_DEV_WIDTH
1002
{
1040
-3.0
1002
}
  0
ARC
  5
1D4
100
AcDbEntity
  8
DETAIL
100
AcDbCircle
 10
-609.489205504909
 20
605.153757136804
 30
0.0
 40
22.16288599096
100
AcDbArc
 50
70.084334385075
 51
91.592194131624
1001
ACAD
1000
TCW40_DEV_WIDTH
1002
{
1040
-3.0
1002
}
  0
ARC
  5
1D5
100
AcDbEntity
  8
DETAIL
100
AcDbCircle
 10
-610.287292082427
 20
632.206206871559
 30
0.0
 40
22.16288599096
100
AcDbArc
 50
-91.592194131624
 51
-70.084334385075
1001
ACAD
1000
TCW40_DEV_WIDTH
1002
{
1040
-3.0
1002
}
  0
ARC
  5
1D6
100
AcDbEntity
  8
DETAIL
100
AcDbCircle
 10
-610.226129444587
 20
620.798035786975
 30
0.0
 40
10.751746448194
100
AcDbArc
 50
-171.67494056735
 51
-91.847401517734
1001
ACAD
1000
TCW40_DEV_WIDTH
1002
{
1040
-3.0
1002
}
  0
ARC
  5
1D7
100
AcDbEntity
  8
DETAIL
100
AcDbCircle
 10
-609.762651626255
 20
615.634650301995
 30
0.0
 40
11.673077811175
100
AcDbArc
 50
89.339582370277
 51
162.002726467346
1001
ACAD
1000
TCW40_DEV_WIDTH
1002
{
1040
-3.0
1002
}
  0
LINE
  5
1D8
100
AcDbEntity
  8
DETAIL
100
AcDbLine
 10
-602.737801335441
 20
611.368771690868
 30
0.0
 11
-594.880625030253
 21
616.276410227862
 31
0.0
1001
ACAD
1000
TCW40_DEV_WIDTH
1002
{
1040
-3.0
1002
}
  0
LINE
  5
1D9
100
AcDbEntity
  8
DETAIL
100
AcDbLine
 10
-601.939714757923
 20
625.991192317495
 30
0.0
 11
-594.082538452735
 21
621.607062760302
 31
0.0
1001
ACAD
1000
TCW40_DEV_WIDTH
1002
{
1040
-3.0
1002
}
  0
ARC
  5
1DA
100
AcDbEntity
  8
DETAIL
100
AcDbCircle
 10
-586.178578466916
 20
654.156483260814
 30
0.0
 40
17.263852811173
100
AcDbArc
 50
-117.247357372772
 51
-86.81054914583
1001
ACAD
1000
TCW40_DEV_WIDTH
1002
{
1040
-3.0
1002
}
  0
ARC
  5
1DB
100
AcDbEntity
  8
DETAIL
100
AcDbCircle
 10
-584.352719704417
 20
619.445405931469
 30
0.0
 40
17.54250277492
100
AcDbArc
 50
95.441106184699
 51
126.879711558443
1001
ACAD
1000
TCW40_DEV_WIDTH
1002
{
1040
-3.0
1002
}
  0
ARC
  5
1DC
100
AcDbEntity
  8
DETAIL
100
AcDbCircle
 10
-585.199159936864
 20
628.268932097584
 30
0.0
 40
8.67847415711
100
AcDbArc
 50
-95.401776784949
 51
95.401776784954
1001
ACAD
1000
TCW40_DEV_WIDTH
1002
{
1040
-3.0
1002
}
  0
ARC
  5
1DD
100
AcDbEntity
  8
DETAIL
100
AcDbCircle
 10
-609.489205504909
 20
622.354951993013
 30
0.0
 40
22.16288599096
100
AcDbArc
 50
70.084334385075
 51
91.592194131624
1001
ACAD
1000
TCW40_DEV_WIDTH
1002
{
1040
-3.0
1002
}
  0
ARC
  5
1DE
100
AcDbEntity
  8
DETAIL
100
AcDbCircle
 10
-610.287292082427
 20
649.407401727768
 30
0.0
 40
22.16288599096
100
AcDbArc
 50
-91.592194131624
 51
-70.084334385075
1001
ACAD
1000
TCW40_DEV_WIDTH
1002
{
1040
-3.0
1002
}
  0
ARC
  5
1DF
100
AcDbEntity
  8
DETAIL
100
AcDbCircle
 10
-610.226129444587
 20
637.999230643184
 30
0.0
 40
10.751746448194
100
AcDbArc
 50
-171.67494056735
 51
-91.847401517734
1001
ACAD
1000
TCW40_DEV_WIDTH
1002
{
1040
-3.0
1002
}
  0
ARC
  5
1E0
100
AcDbEntity
  8
DETAIL
100
AcDbCircle
 10
-609.762651626255
 20
632.835845158204
 30
0.0
 40
11.673077811175
100
AcDbArc
 50
89.339582370277
 51
162.002726467346
1001
ACAD
1000
TCW40_DEV_WIDTH
1002
{
1040
-3.0
1002
}
  0
LINE
  5
1E1
100
AcDbEntity
  8
DETAIL
100
AcDbLine
 10
-602.737801335441
 20
628.569966547077
 30
0.0
 11
-594.880625030253
 21
633.477605084071
 31
0.0
1001
ACAD
1000
TCW40_DEV_WIDTH
1002
{
1040
-3.0
1002
}
  0
LINE
  5
1E2
100
AcDbEntity
  8
DETAIL
100
AcDbLine
 10
-601.939714757923
 20
643.192387173704
 30
0.0
 11
-594.082538452735
 21
638.808257616511
 31
0.0
1001
ACAD
1000
TCW40_DEV_WIDTH
1002
{
1040
-3.0
1002
}
  0
ARC
  5
1E3
100
AcDbEntity
  8
DETAIL
100
AcDbCircle
 10
-586.178578466916
 20
671.507410924798
 30
0.0
 40
17.263852811173
100
AcDbArc
 50
-117.247357372772
 51
-86.81054914583
1001
ACAD
1000
TCW40_DEV_WIDTH
1002
{
1040
-3.0
1002
}
  0
ARC
  5
1E4
100
AcDbEntity
  8
DETAIL
100
AcDbCircle
 10
-584.352719704417
 20
636.796333595454
 30
0.0
 40
17.542502774919
100
AcDbArc
 50
95.441106184699
 51
126.879711558442
1001
ACAD
1000
TCW40_DEV_WIDTH
1002
{
1040
-3.0
1002
}
  0
ARC
  5
1E5
100
AcDbEntity
  8
DETAIL
100
AcDbCircle
 10
-585.199159936864
 20
645.619859761568
 30
0.0
 40
8.67847415711
100
AcDbArc
 50
-95.401776784949
 51
95.401776784955
1001
ACAD
1000
TCW40_DEV_WIDTH
1002
{
1040
-3.0
1002
}
  0
ARC
  5
1E6
100
AcDbEntity
  8
DETAIL
100
AcDbCircle
 10
-609.489205504909
 20
639.705879656997
 30
0.0
 40
22.162885990961
100
AcDbArc
 50
70.084334385075
 51
91.592194131624
1001
ACAD
1000
TCW40_DEV_WIDTH
1002
{
1040
-3.0
1002
}
  0
ARC
  5
1E7
100
AcDbEntity
  8
DETAIL
100
AcDbCircle
 10
-610.287292082427
 20
666.758329391752
 30
0.0
 40
22.16288599096
100
AcDbArc
 50
-91.592194131624
 51
-70.084334385075
1001
ACAD
1000
TCW40_DEV_WIDTH
1002
{
1040
-3.0
1002
}
  0
ARC
  5
1E8
100
AcDbEntity
  8
DETAIL
100
AcDbCircle
 10
-610.226129444587
 20
655.350158307168
 30
0.0
 40
10.751746448194
100
AcDbArc
 50
-171.674940567349
 51
-91.847401517734
1001
ACAD
1000
TCW40_DEV_WIDTH
1002
{
1040
-3.0
1002
}
  0
ARC
  5
1E9
100
AcDbEntity
  8
DETAIL
100
AcDbCircle
 10
-609.762651626255
 20
650.186772822189
 30
0.0
 40
11.673077811175
100
AcDbArc
 50
89.339582370277
 51
162.002726467344
1001
ACAD
1000
TCW40_DEV_WIDTH
1002
{
1040
-3.0
1002
}
  0
LINE
  5
1EA
100
AcDbEntity
  8
DETAIL
100
AcDbLine
 10
-602.737801335441
 20
645.920894211062
 30
0.0
 11
-594.880625030253
 21
650.828532748056
 31
0.0
1001
ACAD
1000
TCW40_DEV_WIDTH
1002
{
1040
-3.0
1002
}
  0
LINE
  5
1EB
100
AcDbEntity
  8
DETAIL
100
AcDbLine
 10
-601.939714757923
 20
660.543314837688
 30
0.0
 11
-594.082538452735
 21
656.159185280495
 31
0.0
1001
ACAD
1000
TCW40_DEV_WIDTH
1002
{
1040
-3.0
1002
}
  0
ARC
  5
1EC
100
AcDbEntity
  8
DETAIL
100
AcDbCircle
 10
-584.352719704417
 20
654.065003270652
 30
0.0
 40
17.542502774919
100
AcDbArc
 50
115.165330230271
 51
126.879711558442
1001
ACAD
1000
TCW40_DEV_WIDTH
1002
{
1040
-3.0
1002
}
  0
ARC
  5
1ED
100
AcDbEntity
  8
DETAIL
100
AcDbCircle
 10
-585.199159936864
 20
662.888529436766
 30
0.0
 40
8.67847415711
100
AcDbArc
 50
-95.401776784949
 51
54.371063811293
1001
ACAD
1000
TCW40_DEV_WIDTH
1002
{
1040
-3.0
1002
}
  0
ARC
  5
1EE
100
AcDbEntity
  8
DETAIL
100
AcDbCircle
 10
-610.287292082427
 20
684.02699906695
 30
0.0
 40
22.16288599096
100
AcDbArc
 50
-91.592194131624
 51
-70.084334385076
1001
ACAD
1000
TCW40_DEV_WIDTH
1002
{
1040
-3.0
1002
}
  0
ARC
  5
1EF
100
AcDbEntity
  8
DETAIL
100
AcDbCircle
 10
-610.226129444587
 20
672.618827982366
 30
0.0
 40
10.751746448194
100
AcDbArc
 50
-165.586100406365
 51
-91.847401517734
1001
ACAD
1000
TCW40_DEV_WIDTH
1002
{
1040
-3.0
1002
}
  0
LINE
  5
1F0
100
AcDbEntity
  8
DETAIL
100
AcDbLine
 10
-602.737801335441
 20
663.18956388626
 30
0.0
 11
-594.880625030253
 21
668.097202423254
 31
0.0
1001
ACAD
1000
TCW40_DEV_WIDTH
1002
{
1040
-3.0
1002
}
  0
LINE
  5
1F1
100
AcDbEntity
  8
0
  6
Continuous
 62
           7
100
AcDbLine
 10
-466.378162780917
 20
348.499991127346
 30
0.0
 11
-466.378162780917
 21
547.978887595988
 31
0.0
1001
ACAD
1000
TCW40_DEV_WIDTH
1002
{
1040
-3.0
1002
}
  0
LINE
  5
1F2
100
AcDbEntity
  8
0
100
AcDbLine
 10
-449.029738721343
 20
324.428483455259
 30
0.0
 11
-448.796524194611
 21
325.03057265818
 31
0.0
1001
ACAD
1000
TCW40_DEV_WIDTH
1002
{
1040
-3.0
1002
}
  0
LINE
  5
1F3
100
AcDbEntity
  8
0
  6
Continuous
 62
           7
100
AcDbLine
 10
-448.089192923052
 20
348.445179139164
 30
0.0
 11
-476.200828215074
 21
348.445179139164
 31
0.0
1001
ACAD
1000
TCW40_DEV_WIDTH
1002
{
1040
-3.0
1002
}
  0
LINE
  5
1F4
100
AcDbEntity
  8
0
  6
Continuous
 62
           7
100
AcDbLine
 10
-476.245146986292
 20
324.428483455259
 30
0.0
 11
814.443169254495
 21
324.428483455259
 31
0.0
1001
ACAD
1000
TCW40_DEV_WIDTH
1002
{
1040
-3.0
1002
}
  0
LINE
  5
1F5
100
AcDbEntity
  8
0
100
AcDbLine
 10
-451.313303765698
 20
380.619512409119
 30
0.0
 11
-451.313303765698
 21
348.640201135609
 31
0.0
1001
ACAD
1000
TCW40_DEV_WIDTH
1002
{
1040
-3.0
1002
}
  0
LINE
  5
1F6
100
AcDbEntity
  8
0
100
AcDbLine
 10
-451.313303765698
 20
348.640201135609
 30
0.0
 11
-464.313303765698
 21
348.640201135609
 31
0.0
1001
ACAD
1000
TCW40_DEV_WIDTH
1002
{
1040
-3.0
1002
}
  0
LINE
  5
1F7
100
AcDbEntity
  8
0
100
AcDbLine
 10
-464.313303765698
 20
348.640201135609
 30
0.0
 11
-464.313303765698
 21
392.793392800789
 31
0.0
1001
ACAD
1000
TCW40_DEV_WIDTH
1002
{
1040
-3.0
1002
}
  0
LWPOLYLINE
  5
1F8
100
AcDbEntity
  8
0
100
AcDbPolyline
 90
       14
 70
         128
 10
-451.313303765698
 20
380.619512409118
 10
-451.62946866755
 20
382.068063743146
 10
-452.088450644323
 20
383.476863082341
 10
-452.685555779553
 20
384.831502918895
 10
-453.414677598983
 20
386.118129623354
 10
-454.26835952025
 20
387.3235851229
 10
-455.237871109854
 20
388.435541466322
 10
-456.313297367547
 20
389.442626899493
 10
-457.48364012505
 20
390.334542162015
 10
-458.73693052211
 20
391.10216581569
 10
-460.060351409629
 20
391.73764752763
 10
-461.44036842807
 20
392.234488354039
 10
-462.862868420639
 20
392.587607203602
 10
-464.313303765698
 20
392.793392800789
1001
ACAD
1000
TCW40_DEV_WIDTH
1002
{
1040
-3.0
1002
}
  0
LWPOLYLINE
  5
1F9
100
AcDbEntity
  8
0
100
AcDbPolyline
 90
        6
 70
         128
 10
-455.012382642305
 20
388.196553242782
 10
-456.999977597366
 20
387.73724072321
 10
-458.939109762636
 20
387.099886128883
 10
-460.814268716405
 20
386.289587430281
 10
-462.610455735703
 20
385.312825915661
 10
-464.3133037657
 20
384.177414349553
1001
ACAD
1000
TCW40_DEV_WIDTH
1002
{
1040
-3.0
1002
}
  0
LWPOLYLINE
  5
1FA
100
AcDbEntity
  8
0
100
AcDbPolyline
 90
        7
 70
         128
 10
-451.313303765699
 20
363.861706654915
 10
-453.35313516855
 20
364.773949405982
 10
-455.471198357974
 20
365.479953382168
 10
-457.647226117726
 20
365.972963008226
 10
-459.860396583101
 20
366.248260798506
 10
-462.089532480148
 20
366.303212497393
 10
-464.313303765698
 20
366.137292285843
1001
ACAD
1000
TCW40_DEV_WIDTH
1002
{
1040
-3.0
1002
}
  0
LWPOLYLINE
  5
1FB
100
AcDbEntity
  8
0
100
AcDbPolyline
 90
        7
 70
         128
 10
-468.391614710688
 20
324.749629347693
 10
-467.497558842909
 20
324.874159218859
 10
-466.618802607888
 20
325.078468219163
 10
-465.762690205686
 20
325.360848837339
 10
-464.936376590665
 20
325.718941079033
 10
-464.146767673996
 20
326.149752190443
 10
-463.400462607553
 20
326.649681670241
1001
ACAD
1000
TCW40_DEV_WIDTH
1002
{
1040
-3.0
1002
}
  0
LWPOLYLINE
  5
1FC
100
AcDbEntity
  8
0
100
AcDbPolyline
 90
       14
 70
         128
 10
-455.123229244236
 20
339.756437705368
 10
-454.482746438692
 20
339.779912911606
 10
-453.847633828006
 20
339.864628816743
 10
-453.223930935768
 20
340.009779825522
 10
-452.617568786279
 20
340.213985642657
 10
-452.034313504231
 20
340.475304398584
 10
-451.479711482458
 20
340.791251115419
 10
-450.959036639218
 20
341.158821337549
 10
-450.477240266525
 20
341.57451970212
 10
-450.038903946462
 20
342.034393177755
 10
-449.648195983199
 20
342.534068655406
 10
-449.308831765034
 20
343.068794533888
 10
-449.024038433368
 20
343.633485904633
 10
-448.796524194611
 20
344.222772905986
1001
ACAD
1000
TCW40_DEV_WIDTH
1002
{
1040
-3.0
1002
}
  0
LWPOLYLINE
  5
1FD
100
AcDbEntity
  8
0
100
AcDbPolyline
 90
        7
 70
         128
 10
-468.232813005729
 20
343.964522037297
 10
-467.33875713795
 20
344.089051908463
 10
-466.460000902929
 20
344.293360908767
 10
-465.603888500727
 20
344.575741526943
 10
-464.777574885705
 20
344.933833768637
 10
-463.987965969036
 20
345.364644880047
 10
-463.241660902593
 20
345.864574359845
1001
ACAD
1000
TCW40_DEV_WIDTH
1002
{
1040
-3.0
1002
}
  0
LWPOLYLINE
  5
1FE
100
AcDbEntity
  8
0
100
AcDbPolyline
 90
        7
 70
         128
 10
-463.691024117531
 20
342.912738196053
 10
-464.472578559901
 20
343.266451697401
 10
-465.282873078382
 20
343.550815388558
 10
-466.11556007173
 20
343.763601650705
 10
-466.964116522852
 20
343.903143580867
 10
-467.821895098141
 20
343.968348049929
 10
-468.682176220668
 20
343.958704265879
1001
ACAD
1000
TCW40_DEV_WIDTH
1002
{
1040
-3.0
1002
}
  0
LWPOLYLINE
  5
1FF
100
AcDbEntity
  8
0
100
AcDbPolyline
 90
       10
 70
         128
 10
-448.796524194611
 20
344.222772905987
 10
-448.910428587867
 20
344.792660919068
 10
-449.080250767839
 20
345.348922485091
 10
-449.304374678245
 20
345.886264125909
 10
-449.580667518448
 20
346.39957240855
 10
-449.906500039546
 20
346.883962605498
 10
-450.278771564743
 20
347.334825178581
 10
-450.693939495911
 20
347.747869644107
 10
-451.14805302554
 20
348.119165401822
 10
-451.636790733293
 20
348.445179139164
1001
ACAD
1000
TCW40_DEV_WIDTH
1002
{
1040
-3.0
1002
}
  0
LWPOLYLINE
  5
200
100
AcDbEntity
  8
0
100
AcDbPolyline
 90
        7
 70
         128
 10
-463.876171720508
 20
333.353043137526
 10
-464.657726162878
 20
333.706756638874
 10
-465.468020681359
 20
333.991120330032
 10
-466.300707674707
 20
334.203906592178
 10
-467.149264125829
 20
334.34344852234
 10
-468.007042701118
 20
334.408652991403
 10
-468.867323823645
 20
334.399009207352
1001
ACAD
1000
TCW40_DEV_WIDTH
1002
{
1040
-3.0
1002
}
  0
LWPOLYLINE
  5
201
100
AcDbEntity
  8
0
100
AcDbPolyline
 90
        7
 70
         128
 10
-468.417960608706
 20
334.404826978771
 10
-467.523904740927
 20
334.529356849936
 10
-466.645148505906
 20
334.733665850241
 10
-465.789036103704
 20
335.016046468417
 10
-464.962722488682
 20
335.374138710111
 10
-464.173113572014
 20
335.80494982152
 10
-463.426808505571
 20
336.304879301318
1001
ACAD
1000
TCW40_DEV_WIDTH
1002
{
1040
-3.0
1002
}
  0
LWPOLYLINE
  5
202
100
AcDbEntity
  8
0
100
AcDbPolyline
 90
       33
 70
         128
 10
-468.417960608707
 20
343.973512184434
 10
-468.92579381204
 20
343.99462378774
 10
-469.433109490094
 20
343.963739364867
 10
-469.93441838043
 20
343.881193091773
 10
-470.424296215317
 20
343.74787813651
 10
-470.897442413449
 20
343.56523699496
 10
-471.348737433354
 20
343.335245882726
 10
-471.773298167907
 20
343.060393352061
 10
-472.16653078058
 20
342.74365336521
 10
-472.524180411718
 20
342.388453115512
 10
-472.842377217019
 20
341.998635944449
 10
-473.11767824006
 20
341.578419755876
 10
-473.347104665814
 20
341.13235137742
 10
-473.528174052055
 20
340.665257362845
 10
-473.658927189904
 20
340.182191767724
 10
-473.737949302883
 20
339.688381463492
 10
-473.764385355093
 20
339.189169581602
 10
-473.737949302883
 20
338.689957699713
 10
-473.658927189904
 20
338.196147395481
 10
-473.528174052055
 20
337.71308180036
 10
-473.347104665814
 20
337.245987785785
 10
-473.11767824006
 20
336.799919407329
 10
-472.842377217019
 20
336.379703218756
 10
-472.524180411718
 20
335.989886047692
 10
-472.16653078058
 20
335.634685797995
 10
-471.773298167907
 20
335.317945811144
 10
-471.348737433354
 20
335.043093280479
 10
-470.897442413449
 20
334.813102168245
 10
-470.424296215316
 20
334.630461026695
 10
-469.93441838043
 20
334.497146071432
 10
-469.433109490094
 20
334.414599798338
 10
-468.925793812039
 20
334.383715375465
 10
-468.417960608707
 20
334.404826978771
1001
ACAD
1000
TCW40_DEV_WIDTH
1002
{
1040
-3.0
1002
}
  0
LWPOLYLINE
  5
203
100
AcDbEntity
  8
0
100
AcDbPolyline
 90
        5
 70
         128
 10
-459.452183015156
 20
330.925341820487
 10
-458.334045751555
 20
330.584367564471
 10
-457.188339770839
 20
330.34794093832
 10
-456.02514792899
 20
330.218142629108
 10
-454.854706967387
 20
330.196114934841
1001
ACAD
1000
TCW40_DEV_WIDTH
1002
{
1040
-3.0
1002
}
  0
LWPOLYLINE
  5
204
100
AcDbEntity
  8
0
100
AcDbPolyline
 90
        5
 70
         128
 10
-459.267035412179
 20
340.485036879015
 10
-458.148898148578
 20
340.144062622998
 10
-457.003192167862
 20
339.907635996847
 10
-455.840000326013
 20
339.777837687635
 10
-454.66955936441
 20
339.755809993368
1001
ACAD
1000
TCW40_DEV_WIDTH
1002
{
1040
-3.0
1002
}
  0
LWPOLYLINE
  5
205
100
AcDbEntity
  8
0
100
AcDbPolyline
 90
        5
 70
         128
 10
-454.405343752449
 20
339.751699356688
 10
-455.575784714052
 20
339.729671662421
 10
-456.738976555901
 20
339.599873353209
 10
-457.884682536617
 20
339.363446727059
 10
-459.002819800218
 20
339.022472471042
1001
ACAD
1000
TCW40_DEV_WIDTH
1002
{
1040
-3.0
1002
}
  0
LWPOLYLINE
  5
206
100
AcDbEntity
  8
0
100
AcDbPolyline
 90
       15
 70
         128
 10
-448.796524194611
 20
334.663077847459
 10
-448.913247424493
 20
335.244108173983
 10
-449.088090600034
 20
335.81085835731
 10
-449.319323528954
 20
336.357720018461
 10
-449.604658003971
 20
336.879281588925
 10
-449.94127044616
 20
337.370381861815
 10
-450.325829846197
 20
337.826161065527
 10
-450.754530726961
 20
338.242108954487
 10
-451.223130801323
 20
338.614109441103
 10
-451.726992952464
 20
338.938481327254
 10
-452.261131121302
 20
339.212014732252
 10
-452.820259646949
 20
339.432002856798
 10
-453.398845571916
 20
339.596268768605
 10
-453.991163394498
 20
339.70318694462
 10
-454.591351726517
 20
339.751699356688
1001
ACAD
1000
TCW40_DEV_WIDTH
1002
{
1040
-3.0
1002
}
  0
LWPOLYLINE
  5
207
100
AcDbEntity
  8
0
100
AcDbPolyline
 90
       14
 70
         128
 10
-455.123229244236
 20
330.196742646841
 10
-454.482746438692
 20
330.220217853079
 10
-453.847633828006
 20
330.304933758217
 10
-453.223930935767
 20
330.450084766995
 10
-452.617568786279
 20
330.65429058413
 10
-452.034313504231
 20
330.915609340057
 10
-451.479711482458
 20
331.231556056892
 10
-450.959036639218
 20
331.599126279022
 10
-450.477240266525
 20
332.014824643593
 10
-450.038903946461
 20
332.474698119228
 10
-449.648195983199
 20
332.974373596879
 10
-449.308831765034
 20
333.509099475362
 10
-449.024038433367
 20
334.073790846106
 10
-448.796524194611
 20
334.663077847459
1001
ACAD
1000
TCW40_DEV_WIDTH
1002
{
1040
-3.0
1002
}
  0
LINE
  5
208
100
AcDbEntity
  8
0
100
AcDbLine
 10
-459.002819800219
 20
339.022472471042
 30
0.0
 11
-463.42680850557
 21
336.304879301318
 31
0.0
1001
ACAD
1000
TCW40_DEV_WIDTH
1002
{
1040
-3.0
1002
}
  0
LINE
  5
209
100
AcDbEntity
  8
0
100
AcDbLine
 10
-459.267035412181
 20
340.485036879015
 30
0.0
 11
-463.691024117531
 21
342.912738196053
 31
0.0
1001
ACAD
1000
TCW40_DEV_WIDTH
1002
{
1040
-3.0
1002
}
  0
LINE
  5
20A
100
AcDbEntity
  8
0
100
AcDbLine
 10
-459.452183015158
 20
330.925341820489
 30
0.0
 11
-463.876171720508
 21
333.353043137526
 31
0.0
1001
ACAD
1000
TCW40_DEV_WIDTH
1002
{
1040
-3.0
1002
}
  0
LINE
  5
20B
100
AcDbEntity
  8
0
100
AcDbLine
 10
-458.817672197243
 20
329.389967281761
 30
0.0
 11
-463.241660902593
 21
326.672374112038
 31
0.0
1001
ACAD
1000
TCW40_DEV_WIDTH
1002
{
1040
-3.0
1002
}
  0
LWPOLYLINE
  5
20C
100
AcDbEntity
  8
0
100
AcDbPolyline
 90
       33
 70
         128
 10
-468.417960608707
 20
334.341006995154
 10
-468.92579381204
 20
334.36211859846
 10
-469.433109490094
 20
334.331234175587
 10
-469.93441838043
 20
334.248687902492
 10
-470.424296215317
 20
334.115372947229
 10
-470.897442413449
 20
333.93273180568
 10
-471.348737433354
 20
333.702740693445
 10
-471.773298167907
 20
333.42788816278
 10
-472.16653078058
 20
333.111148175929
 10
-472.524180411718
 20
332.755947926232
 10
-472.842377217019
 20
332.366130755168
 10
-473.11767824006
 20
331.945914566595
 10
-473.347104665814
 20
331.499846188139
 10
-473.528174052055
 20
331.032752173564
 10
-473.658927189904
 20
330.549686578442
 10
-473.737949302883
 20
330.055876274211
 10
-473.764385355093
 20
329.556664392321
 10
-473.737949302883
 20
329.057452510431
 10
-473.658927189904
 20
328.5636422062
 10
-473.528174052055
 20
328.080576611078
 10
-473.347104665814
 20
327.613482596503
 10
-473.11767824006
 20
327.167414218048
 10
-472.842377217019
 20
326.747198029475
 10
-472.524180411718
 20
326.357380858411
 10
-472.16653078058
 20
326.002180608713
 10
-471.773298167907
 20
325.685440621862
 10
-471.348737433354
 20
325.410588091197
 10
-470.897442413449
 20
325.180596978963
 10
-470.424296215316
 20
324.997955837413
 10
-469.93441838043
 20
324.86464088215
 10
-469.433109490093
 20
324.782094609056
 10
-468.925793812039
 20
324.751210186183
 10
-468.417960608706
 20
324.772321789489
1001
ACAD
1000
TCW40_DEV_WIDTH
1002
{
1040
-3.0
1002
}
  0
LWPOLYLINE
  5
20D
100
AcDbEntity
  8
0
100
AcDbPolyline
 90
       15
 70
         128
 10
-448.796524194611
 20
325.03057265818
 10
-448.913247424493
 20
325.611602984703
 10
-449.088090600034
 20
326.17835316803
 10
-449.319323528955
 20
326.725214829181
 10
-449.604658003971
 20
327.246776399645
 10
-449.94127044616
 20
327.737876672534
 10
-450.325829846197
 20
328.193655876246
 10
-450.754530726962
 20
328.609603765206
 10
-451.223130801324
 20
328.981604251822
 10
-451.726992952464
 20
329.305976137973
 10
-452.261131121303
 20
329.579509542971
 10
-452.820259646949
 20
329.799497667518
 10
-453.398845571916
 20
329.963763579324
 10
-453.991163394499
 20
330.070681755339
 10
-454.591351726517
 20
330.119194167407
1001
ACAD
1000
TCW40_DEV_WIDTH
1002
{
1040
-3.0
1002
}
  0
LWPOLYLINE
  5
20E
100
AcDbEntity
  8
0
100
AcDbPolyline
 90
        5
 70
         128
 10
-454.220196149472
 20
330.119194167407
 10
-455.390637111075
 20
330.09716647314
 10
-456.553828952924
 20
329.967368163928
 10
-457.69953493364
 20
329.730941537777
 10
-458.817672197241
 20
329.389967281761
1001
ACAD
1000
TCW40_DEV_WIDTH
1002
{
1040
-3.0
1002
}
  0
LINE
  5
20F
100
AcDbEntity
  8
0
100
AcDbLine
 10
-459.040676544863
 20
348.445179139164
 30
0.0
 11
-463.241660902593
 21
345.864574359845
 31
0.0
1001
ACAD
1000
TCW40_DEV_WIDTH
1002
{
1040
-3.0
1002
}
  0
LINE
  5
210
100
AcDbEntity
  8
0
100
AcDbLine
 10
-194.243039076898
 20
332.515478232236
 30
0.0
 11
-184.089192923052
 21
332.515478232236
 31
0.0
1001
ACAD
1000
TCW40_DEV_WIDTH
1002
{
1040
-3.0
1002
}
  0
LINE
  5
211
100
AcDbEntity
  8
0
100
AcDbLine
 10
-184.089192923052
 20
332.515478232236
 30
0.0
 11
-184.089192923052
 21
342.669324386081
 31
0.0
1001
ACAD
1000
TCW40_DEV_WIDTH
1002
{
1040
-3.0
1002
}
  0
LINE
  5
212
100
AcDbEntity
  8
0
100
AcDbLine
 10
-184.089192923052
 20
342.669324386081
 30
0.0
 11
-194.243039076898
 21
342.669324386081
 31
0.0
1001
ACAD
1000
TCW40_DEV_WIDTH
1002
{
1040
-3.0
1002
}
  0
LINE
  5
213
100
AcDbEntity
  8
0
100
AcDbLine
 10
-194.243039076898
 20
342.669324386081
 30
0.0
 11
-194.243039076898
 21
348.592401309159
 31
0.0
1001
ACAD
1000
TCW40_DEV_WIDTH
1002
{
1040
-3.0
1002
}
  0
LINE
  5
214
100
AcDbEntity
  8
0
100
AcDbLine
 10
-194.243039076898
 20
348.592401309159
 30
0.0
 11
59.603114769255
 21
348.592401309159
 31
0.0
1001
ACAD
1000
TCW40_DEV_WIDTH
1002
{
1040
-3.0
1002
}
  0
LINE
  5
215
100
AcDbEntity
  8
0
100
AcDbLine
 10
59.603114769255
 20
348.592401309159
 30
0.0
 11
59.603114769255
 21
342.669324386081
 31
0.0
1001
ACAD
1000
TCW40_DEV_WIDTH
1002
{
1040
-3.0
1002
}
  0
LINE
  5
216
100
AcDbEntity
  8
0
100
AcDbLine
 10
59.603114769255
 20
342.669324386081
 30
0.0
 11
69.756960923101
 21
342.669324386081
 31
0.0
1001
ACAD
1000
TCW40_DEV_WIDTH
1002
{
1040
-3.0
1002
}
  0
LINE
  5
217
100
AcDbEntity
  8
0
100
AcDbLine
 10
69.756960923101
 20
342.669324386081
 30
0.0
 11
69.756960923101
 21
332.515478232236
 31
0.0
1001
ACAD
1000
TCW40_DEV_WIDTH
1002
{
1040
-3.0
1002
}
  0
LINE
  5
218
100
AcDbEntity
  8
0
100
AcDbLine
 10
69.756960923101
 20
332.515478232236
 30
0.0
 11
59.603114769255
 21
332.515478232236
 31
0.0
1001
ACAD
1000
TCW40_DEV_WIDTH
1002
{
1040
-3.0
1002
}
  0
LINE
  5
219
100
AcDbEntity
  8
0
100
AcDbLine
 10
59.603114769255
 20
332.515478232236
 30
0.0
 11
59.603114769255
 21
326.592401309159
 31
0.0
1001
ACAD
1000
TCW40_DEV_WIDTH
1002
{
1040
-3.0
1002
}
  0
LINE
  5
21A
100
AcDbEntity
  8
0
100
AcDbLine
 10
59.603114769255
 20
326.592401309159
 30
0.0
 11
-194.243039076898
 21
326.592401309159
 31
0.0
1001
ACAD
1000
TCW40_DEV_WIDTH
1002
{
1040
-3.0
1002
}
  0
LINE
  5
21B
100
AcDbEntity
  8
0
100
AcDbLine
 10
-194.243039076898
 20
326.592401309159
 30
0.0
 11
-194.243039076898
 21
332.515478232236
 31
0.0
1001
ACAD
1000
TCW40_DEV_WIDTH
1002
{
1040
-3.0
1002
}
  0
LWPOLYLINE
  5
21C
100
AcDbEntity
  8
0
100
AcDbPolyline
 90
        3
 70
         128
 10
-386.657310207382
 20
326.592401309158
 10
-383.728793118521
 20
337.482729156141
 10
-381.792136822995
 20
348.592401309158
1001
ACAD
1000
TCW40_DEV_WIDTH
1002
{
1040
-3.0
1002
}
  0
LINE
  5
21D
100
AcDbEntity
  8
0
100
AcDbLine
 10
-448.089192923052
 20
332.515478232236
 30
0.0
 11
-437.935346769205
 21
332.515478232236
 31
0.0
1001
ACAD
1000
TCW40_DEV_WIDTH
1002
{
1040
-3.0
1002
}
  0
LINE
  5
21E
100
AcDbEntity
  8
0
100
AcDbLine
 10
-437.935346769205
 20
332.515478232236
 30
0.0
 11
-437.935346769205
 21
342.669324386081
 31
0.0
1001
ACAD
1000
TCW40_DEV_WIDTH
1002
{
1040
-3.0
1002
}
  0
LINE
  5
21F
100
AcDbEntity
  8
0
100
AcDbLine
 10
-437.935346769205
 20
342.669324386081
 30
0.0
 11
-448.089192923052
 21
342.669324386081
 31
0.0
1001
ACAD
1000
TCW40_DEV_WIDTH
1002
{
1040
-3.0
1002
}
  0
LINE
  5
220
100
AcDbEntity
  8
0
100
AcDbLine
 10
-448.089192923052
 20
342.669324386081
 30
0.0
 11
-448.089192923052
 21
348.592401309159
 31
0.0
1001
ACAD
1000
TCW40_DEV_WIDTH
1002
{
1040
-3.0
1002
}
  0
LINE
  5
221
100
AcDbEntity
  8
0
100
AcDbLine
 10
-448.089192923052
 20
348.592401309159
 30
0.0
 11
-194.243039076898
 21
348.592401309159
 31
0.0
1001
ACAD
1000
TCW40_DEV_WIDTH
1002
{
1040
-3.0
1002
}
  0
LINE
  5
222
100
AcDbEntity
  8
0
100
AcDbLine
 10
-194.243039076898
 20
348.592401309159
 30
0.0
 11
-194.243039076898
 21
342.669324386081
 31
0.0
1001
ACAD
1000
TCW40_DEV_WIDTH
1002
{
1040
-3.0
1002
}
  0
LINE
  5
223
100
AcDbEntity
  8
0
100
AcDbLine
 10
-194.243039076898
 20
342.669324386081
 30
0.0
 11
-184.089192923052
 21
342.669324386081
 31
0.0
1001
ACAD
1000
TCW40_DEV_WIDTH
1002
{
1040
-3.0
1002
}
  0
LINE
  5
224
100
AcDbEntity
  8
0
100
AcDbLine
 10
-184.089192923052
 20
342.669324386081
 30
0.0
 11
-184.089192923052
 21
332.515478232236
 31
0.0
1001
ACAD
1000
TCW40_DEV_WIDTH
1002
{
1040
-3.0
1002
}
  0
LINE
  5
225
100
AcDbEntity
  8
0
100
AcDbLine
 10
-184.089192923052
 20
332.515478232236
 30
0.0
 11
-194.243039076898
 21
332.515478232236
 31
0.0
1001
ACAD
1000
TCW40_DEV_WIDTH
1002
{
1040
-3.0
1002
}
  0
LINE
  5
226
100
AcDbEntity
  8
0
100
AcDbLine
 10
-194.243039076898
 20
332.515478232236
 30
0.0
 11
-194.243039076898
 21
326.592401309159
 31
0.0
1001
ACAD
1000
TCW40_DEV_WIDTH
1002
{
1040
-3.0
1002
}
  0
LINE
  5
227
100
AcDbEntity
  8
0
100
AcDbLine
 10
-194.243039076898
 20
326.592401309159
 30
0.0
 11
-448.089192923052
 21
326.592401309159
 31
0.0
1001
ACAD
1000
TCW40_DEV_WIDTH
1002
{
1040
-3.0
1002
}
  0
LINE
  5
228
100
AcDbEntity
  8
0
100
AcDbLine
 10
-448.089192923052
 20
326.592401309159
 30
0.0
 11
-448.089192923052
 21
332.515478232236
 31
0.0
1001
ACAD
1000
TCW40_DEV_WIDTH
1002
{
1040
-3.0
1002
}
  0
LWPOLYLINE
  5
229
100
AcDbEntity
  8
0
100
AcDbPolyline
 90
        3
 70
         128
 10
-355.137963890909
 20
326.592401309158
 10
-352.209446802047
 20
337.482729156141
 10
-350.272790506521
 20
348.592401309158
1001
ACAD
1000
TCW40_DEV_WIDTH
1002
{
1040
-3.0
1002
}
  0
LWPOLYLINE
  5
22A
100
AcDbEntity
  8
0
100
AcDbPolyline
 90
        3
 70
         128
 10
-317.887829180034
 20
326.592401309158
 10
-314.959312091173
 20
337.482729156141
 10
-313.022655795647
 20
348.592401309158
1001
ACAD
1000
TCW40_DEV_WIDTH
1002
{
1040
-3.0
1002
}
  0
LWPOLYLINE
  5
22B
100
AcDbEntity
  8
0
100
AcDbPolyline
 90
        3
 70
         128
 10
-286.36848286356
 20
326.592401309158
 10
-283.439965774698
 20
337.482729156141
 10
-281.503309479173
 20
348.592401309158
1001
ACAD
1000
TCW40_DEV_WIDTH
1002
{
1040
-3.0
1002
}
  0
LWPOLYLINE
  5
22C
100
AcDbEntity
  8
0
100
AcDbPolyline
 90
        3
 70
         128
 10
-243.387559758282
 20
326.592401309159
 10
-240.459042669421
 20
337.482729156141
 10
-238.522386373895
 20
348.592401309158
1001
ACAD
1000
TCW40_DEV_WIDTH
1002
{
1040
-3.0
1002
}
  0
LWPOLYLINE
  5
22D
100
AcDbEntity
  8
0
100
AcDbPolyline
 90
        3
 70
         128
 10
-184.555970778925
 20
326.592401309159
 10
-181.627453690064
 20
337.482729156141
 10
-179.690797394538
 20
348.592401309158
1001
ACAD
1000
TCW40_DEV_WIDTH
1002
{
1040
-3.0
1002
}
  0
LWPOLYLINE
  5
22E
100
AcDbEntity
  8
0
100
AcDbPolyline
 90
        3
 70
         128
 10
-165.08564685676
 20
326.592401309159
 10
-162.157129767899
 20
337.482729156141
 10
-160.220473472373
 20
348.592401309158
1001
ACAD
1000
TCW40_DEV_WIDTH
1002
{
1040
-3.0
1002
}
  0
LWPOLYLINE
  5
22F
100
AcDbEntity
  8
0
100
AcDbPolyline
 90
        3
 70
         128
 10
-146.938140127225
 20
326.592401309158
 10
-144.009623038364
 20
337.482729156141
 10
-142.072966742838
 20
348.592401309158
1001
ACAD
1000
TCW40_DEV_WIDTH
1002
{
1040
-3.0
1002
}
  0
LINE
  5
230
100
AcDbEntity
  8
0
100
AcDbLine
 10
59.603114769255
 20
332.515478232236
 30
0.0
 11
69.756960923101
 21
332.515478232236
 31
0.0
1001
ACAD
1000
TCW40_DEV_WIDTH
1002
{
1040
-3.0
1002
}
  0
LINE
  5
231
100
AcDbEntity
  8
0
100
AcDbLine
 10
69.756960923101
 20
332.515478232236
 30
0.0
 11
69.756960923101
 21
342.669324386081
 31
0.0
1001
ACAD
1000
TCW40_DEV_WIDTH
1002
{
1040
-3.0
1002
}
  0
LINE
  5
232
100
AcDbEntity
  8
0
100
AcDbLine
 10
69.756960923101
 20
342.669324386081
 30
0.0
 11
59.603114769255
 21
342.669324386081
 31
0.0
1001
ACAD
1000
TCW40_DEV_WIDTH
1002
{
1040
-3.0
1002
}
  0
LINE
  5
233
100
AcDbEntity
  8
0
100
AcDbLine
 10
59.603114769255
 20
342.669324386081
 30
0.0
 11
59.603114769255
 21
348.592401309159
 31
0.0
1001
ACAD
1000
TCW40_DEV_WIDTH
1002
{
1040
-3.0
1002
}
  0
LINE
  5
234
100
AcDbEntity
  8
0
100
AcDbLine
 10
59.603114769255
 20
348.592401309159
 30
0.0
 11
313.449268615408
 21
348.592401309159
 31
0.0
1001
ACAD
1000
TCW40_DEV_WIDTH
1002
{
1040
-3.0
1002
}
  0
LINE
  5
235
100
AcDbEntity
  8
0
100
AcDbLine
 10
313.449268615408
 20
348.592401309159
 30
0.0
 11
313.449268615408
 21
342.669324386081
 31
0.0
1001
ACAD
1000
TCW40_DEV_WIDTH
1002
{
1040
-3.0
1002
}
  0
LINE
  5
236
100
AcDbEntity
  8
0
100
AcDbLine
 10
313.449268615408
 20
342.669324386081
 30
0.0
 11
323.603114769254
 21
342.669324386081
 31
0.0
1001
ACAD
1000
TCW40_DEV_WIDTH
1002
{
1040
-3.0
1002
}
  0
LINE
  5
237
100
AcDbEntity
  8
0
100
AcDbLine
 10
323.603114769254
 20
342.669324386081
 30
0.0
 11
323.603114769254
 21
332.515478232236
 31
0.0
1001
ACAD
1000
TCW40_DEV_WIDTH
1002
{
1040
-3.0
1002
}
  0
LINE
  5
238
100
AcDbEntity
  8
0
100
AcDbLine
 10
323.603114769254
 20
332.515478232236
 30
0.0
 11
313.449268615408
 21
332.515478232236
 31
0.0
1001
ACAD
1000
TCW40_DEV_WIDTH
1002
{
1040
-3.0
1002
}
  0
LINE
  5
239
100
AcDbEntity
  8
0
100
AcDbLine
 10
313.449268615408
 20
332.515478232236
 30
0.0
 11
313.449268615408
 21
326.592401309159
 31
0.0
1001
ACAD
1000
TCW40_DEV_WIDTH
1002
{
1040
-3.0
1002
}
  0
LINE
  5
23A
100
AcDbEntity
  8
0
100
AcDbLine
 10
313.449268615408
 20
326.592401309159
 30
0.0
 11
59.603114769255
 21
326.592401309159
 31
0.0
1001
ACAD
1000
TCW40_DEV_WIDTH
1002
{
1040
-3.0
1002
}
  0
LINE
  5
23B
100
AcDbEntity
  8
0
100
AcDbLine
 10
59.603114769255
 20
326.592401309159
 30
0.0
 11
59.603114769255
 21
332.515478232236
 31
0.0
1001
ACAD
1000
TCW40_DEV_WIDTH
1002
{
1040
-3.0
1002
}
  0
LWPOLYLINE
  5
23C
100
AcDbEntity
  8
0
100
AcDbPolyline
 90
        3
 70
         128
 10
-121.149588969995
 20
326.592401309158
 10
-118.221071881134
 20
337.482729156141
 10
-116.284415585608
 20
348.592401309158
1001
ACAD
1000
TCW40_DEV_WIDTH
1002
{
1040
-3.0
1002
}
  0
LWPOLYLINE
  5
23D
100
AcDbEntity
  8
0
100
AcDbPolyline
 90
        3
 70
         128
 10
-89.630242653521
 20
326.592401309158
 10
-86.70172556466
 20
337.482729156141
 10
-84.765069269134
 20
348.592401309158
1001
ACAD
1000
TCW40_DEV_WIDTH
1002
{
1040
-3.0
1002
}
  0
LWPOLYLINE
  5
23E
100
AcDbEntity
  8
0
100
AcDbPolyline
 90
        3
 70
         128
 10
-52.380107942646
 20
326.592401309159
 10
-49.451590853785
 20
337.482729156141
 10
-47.514934558259
 20
348.592401309158
1001
ACAD
1000
TCW40_DEV_WIDTH
1002
{
1040
-3.0
1002
}
  0
LWPOLYLINE
  5
23F
100
AcDbEntity
  8
0
100
AcDbPolyline
 90
        3
 70
         128
 10
-20.860761626173
 20
326.592401309158
 10
-17.932244537311
 20
337.482729156141
 10
-15.995588241785
 20
348.592401309158
1001
ACAD
1000
TCW40_DEV_WIDTH
1002
{
1040
-3.0
1002
}
  0
LWPOLYLINE
  5
240
100
AcDbEntity
  8
0
100
AcDbPolyline
 90
        3
 70
         128
 10
22.120161479105
 20
326.592401309159
 10
25.048678567966
 20
337.482729156141
 10
26.985334863492
 20
348.592401309158
1001
ACAD
1000
TCW40_DEV_WIDTH
1002
{
1040
-3.0
1002
}
  0
LWPOLYLINE
  5
241
100
AcDbEntity
  8
0
100
AcDbPolyline
 90
        3
 70
         128
 10
58.415161408492
 20
326.592401309158
 10
61.343678497354
 20
337.482729156141
 10
63.28033479288
 20
348.592401309158
1001
ACAD
1000
TCW40_DEV_WIDTH
1002
{
1040
-3.0
1002
}
  0
LWPOLYLINE
  5
242
100
AcDbEntity
  8
0
100
AcDbPolyline
 90
        3
 70
         128
 10
106.908013718928
 20
326.592401309158
 10
109.836530807789
 20
337.482729156141
 10
111.773187103315
 20
348.592401309158
1001
ACAD
1000
TCW40_DEV_WIDTH
1002
{
1040
-3.0
1002
}
  0
LWPOLYLINE
  5
243
100
AcDbEntity
  8
0
100
AcDbPolyline
 90
        3
 70
         128
 10
88.760506989393
 20
326.592401309158
 10
91.689024078254
 20
337.482729156141
 10
93.62568037378
 20
348.592401309158
1001
ACAD
1000
TCW40_DEV_WIDTH
1002
{
1040
-3.0
1002
}
  0
LWPOLYLINE
  5
244
100
AcDbEntity
  8
0
100
AcDbPolyline
 90
        3
 70
         128
 10
221.323824828746
 20
326.592401309158
 10
224.252341917608
 20
337.482729156141
 10
226.188998213134
 20
348.592401309158
1001
ACAD
1000
TCW40_DEV_WIDTH
1002
{
1040
-3.0
1002
}
  0
LWPOLYLINE
  5
245
100
AcDbEntity
  8
0
100
AcDbPolyline
 90
        3
 70
         128
 10
132.696564876158
 20
326.592401309158
 10
135.625081965019
 20
337.482729156141
 10
137.561738260545
 20
348.592401309158
1001
ACAD
1000
TCW40_DEV_WIDTH
1002
{
1040
-3.0
1002
}
  0
LWPOLYLINE
  5
246
100
AcDbEntity
  8
0
100
AcDbPolyline
 90
        3
 70
         128
 10
152.554343801398
 20
326.592401309158
 10
155.482860890259
 20
337.482729156141
 10
157.419517185785
 20
348.592401309158
1001
ACAD
1000
TCW40_DEV_WIDTH
1002
{
1040
-3.0
1002
}
  0
LWPOLYLINE
  5
247
100
AcDbEntity
  8
0
100
AcDbPolyline
 90
        3
 70
         128
 10
189.804478512273
 20
326.592401309159
 10
192.732995601134
 20
337.482729156141
 10
194.66965189666
 20
348.592401309158
1001
ACAD
1000
TCW40_DEV_WIDTH
1002
{
1040
-3.0
1002
}
  0
LWPOLYLINE
  5
248
100
AcDbEntity
  8
0
100
AcDbPolyline
 90
        3
 70
         128
 10
264.304747934024
 20
326.592401309159
 10
267.233265022885
 20
337.482729156141
 10
269.169921318411
 20
348.592401309158
1001
ACAD
1000
TCW40_DEV_WIDTH
1002
{
1040
-3.0
1002
}
  0
LWPOLYLINE
  5
249
100
AcDbEntity
  8
0
100
AcDbPolyline
 90
        3
 70
         128
 10
300.599747863411
 20
326.592401309158
 10
303.528264952273
 20
337.482729156141
 10
305.464921247799
 20
348.592401309158
1001
ACAD
1000
TCW40_DEV_WIDTH
1002
{
1040
-3.0
1002
}
  0
LINE
  5
24A
100
AcDbEntity
  8
0
100
AcDbLine
 10
567.294706262503
 20
332.515478232236
 30
0.0
 11
577.448552416349
 21
332.515478232236
 31
0.0
1001
ACAD
1000
TCW40_DEV_WIDTH
1002
{
1040
-3.0
1002
}
  0
LINE
  5
24B
100
AcDbEntity
  8
0
100
AcDbLine
 10
577.448552416349
 20
332.515478232236
 30
0.0
 11
577.448552416349
 21
342.669324386081
 31
0.0
1001
ACAD
1000
TCW40_DEV_WIDTH
1002
{
1040
-3.0
1002
}
  0
LINE
  5
24C
100
AcDbEntity
  8
0
100
AcDbLine
 10
577.448552416349
 20
342.669324386081
 30
0.0
 11
567.294706262503
 21
342.669324386081
 31
0.0
1001
ACAD
1000
TCW40_DEV_WIDTH
1002
{
1040
-3.0
1002
}
  0
LINE
  5
24D
100
AcDbEntity
  8
0
100
AcDbLine
 10
567.294706262503
 20
342.669324386081
 30
0.0
 11
567.294706262503
 21
348.592401309159
 31
0.0
1001
ACAD
1000
TCW40_DEV_WIDTH
1002
{
1040
-3.0
1002
}
  0
LINE
  5
24E
100
AcDbEntity
  8
0
100
AcDbLine
 10
567.294706262503
 20
326.592401309159
 30
0.0
 11
567.294706262503
 21
332.515478232236
 31
0.0
1001
ACAD
1000
TCW40_DEV_WIDTH
1002
{
1040
-3.0
1002
}
  0
LINE
  5
24F
100
AcDbEntity
  8
0
100
AcDbLine
 10
374.880435132019
 20
326.592401309159
 30
0.0
 11
377.808952220881
 21
337.482729156142
 31
0.0
1001
ACAD
1000
TCW40_DEV_WIDTH
1002
{
1040
-3.0
1002
}
  0
LINE
  5
250
100
AcDbEntity
  8
0
100
AcDbLine
 10
377.808952220881
 20
337.482729156142
 30
0.0
 11
379.745608516407
 21
348.592401309159
 31
0.0
1001
ACAD
1000
TCW40_DEV_WIDTH
1002
{
1040
-3.0
1002
}
  0
LINE
  5
251
100
AcDbEntity
  8
0
100
AcDbLine
 10
313.44855241635
 20
332.515478232236
 30
0.0
 11
323.602398570196
 21
332.515478232236
 31
0.0
1001
ACAD
1000
TCW40_DEV_WIDTH
1002
{
1040
-3.0
1002
}
  0
LINE
  5
252
100
AcDbEntity
  8
0
100
AcDbLine
 10
323.602398570196
 20
332.515478232236
 30
0.0
 11
323.602398570196
 21
342.669324386081
 31
0.0
1001
ACAD
1000
TCW40_DEV_WIDTH
1002
{
1040
-3.0
1002
}
  0
LINE
  5
253
100
AcDbEntity
  8
0
100
AcDbLine
 10
323.602398570196
 20
342.669324386081
 30
0.0
 11
313.44855241635
 21
342.669324386081
 31
0.0
1001
ACAD
1000
TCW40_DEV_WIDTH
1002
{
1040
-3.0
1002
}
  0
LINE
  5
254
100
AcDbEntity
  8
0
100
AcDbLine
 10
313.44855241635
 20
342.669324386081
 30
0.0
 11
313.44855241635
 21
348.592401309159
 31
0.0
1001
ACAD
1000
TCW40_DEV_WIDTH
1002
{
1040
-3.0
1002
}
  0
LINE
  5
255
100
AcDbEntity
  8
0
100
AcDbLine
 10
313.44855241635
 20
348.592401309159
 30
0.0
 11
567.294706262503
 21
348.592401309159
 31
0.0
1001
ACAD
1000
TCW40_DEV_WIDTH
1002
{
1040
-3.0
1002
}
  0
LINE
  5
256
100
AcDbEntity
  8
0
100
AcDbLine
 10
567.294706262503
 20
348.592401309159
 30
0.0
 11
567.294706262503
 21
342.669324386081
 31
0.0
1001
ACAD
1000
TCW40_DEV_WIDTH
1002
{
1040
-3.0
1002
}
  0
LINE
  5
257
100
AcDbEntity
  8
0
100
AcDbLine
 10
567.294706262503
 20
342.669324386081
 30
0.0
 11
577.448552416349
 21
342.669324386081
 31
0.0
1001
ACAD
1000
TCW40_DEV_WIDTH
1002
{
1040
-3.0
1002
}
  0
LINE
  5
258
100
AcDbEntity
  8
0
100
AcDbLine
 10
577.448552416349
 20
342.669324386081
 30
0.0
 11
577.448552416349
 21
332.515478232236
 31
0.0
1001
ACAD
1000
TCW40_DEV_WIDTH
1002
{
1040
-3.0
1002
}
  0
LINE
  5
259
100
AcDbEntity
  8
0
100
AcDbLine
 10
577.448552416349
 20
332.515478232236
 30
0.0
 11
567.294706262503
 21
332.515478232236
 31
0.0
1001
ACAD
1000
TCW40_DEV_WIDTH
1002
{
1040
-3.0
1002
}
  0
LINE
  5
25A
100
AcDbEntity
  8
0
100
AcDbLine
 10
567.294706262503
 20
332.515478232236
 30
0.0
 11
567.294706262503
 21
326.592401309159
 31
0.0
1001
ACAD
1000
TCW40_DEV_WIDTH
1002
{
1040
-3.0
1002
}
  0
LINE
  5
25B
100
AcDbEntity
  8
0
100
AcDbLine
 10
313.44855241635
 20
326.592401309159
 30
0.0
 11
313.44855241635
 21
332.515478232236
 31
0.0
1001
ACAD
1000
TCW40_DEV_WIDTH
1002
{
1040
-3.0
1002
}
  0
LINE
  5
25C
100
AcDbEntity
  8
0
100
AcDbLine
 10
406.399781448493
 20
326.592401309159
 30
0.0
 11
409.328298537355
 21
337.482729156142
 31
0.0
1001
ACAD
1000
TCW40_DEV_WIDTH
1002
{
1040
-3.0
1002
}
  0
LINE
  5
25D
100
AcDbEntity
  8
0
100
AcDbLine
 10
409.328298537355
 20
337.482729156142
 30
0.0
 11
411.26495483288
 21
348.592401309159
 31
0.0
1001
ACAD
1000
TCW40_DEV_WIDTH
1002
{
1040
-3.0
1002
}
  0
LINE
  5
25E
100
AcDbEntity
  8
0
100
AcDbLine
 10
443.649916159368
 20
326.592401309159
 30
0.0
 11
446.578433248229
 21
337.482729156142
 31
0.0
1001
ACAD
1000
TCW40_DEV_WIDTH
1002
{
1040
-3.0
1002
}
  0
LINE
  5
25F
100
AcDbEntity
  8
0
100
AcDbLine
 10
446.578433248229
 20
337.482729156142
 30
0.0
 11
448.515089543755
 21
348.592401309159
 31
0.0
1001
ACAD
1000
TCW40_DEV_WIDTH
1002
{
1040
-3.0
1002
}
  0
LINE
  5
260
100
AcDbEntity
  8
0
100
AcDbLine
 10
475.169262475842
 20
326.592401309159
 30
0.0
 11
478.097779564703
 21
337.482729156142
 31
0.0
1001
ACAD
1000
TCW40_DEV_WIDTH
1002
{
1040
-3.0
1002
}
  0
LINE
  5
261
100
AcDbEntity
  8
0
100
AcDbLine
 10
478.097779564703
 20
337.482729156142
 30
0.0
 11
480.034435860229
 21
348.592401309159
 31
0.0
1001
ACAD
1000
TCW40_DEV_WIDTH
1002
{
1040
-3.0
1002
}
  0
LINE
  5
262
100
AcDbEntity
  8
0
100
AcDbLine
 10
518.150185581119
 20
326.592401309159
 30
0.0
 11
521.078702669981
 21
337.482729156142
 31
0.0
1001
ACAD
1000
TCW40_DEV_WIDTH
1002
{
1040
-3.0
1002
}
  0
LINE
  5
263
100
AcDbEntity
  8
0
100
AcDbLine
 10
521.078702669981
 20
337.482729156142
 30
0.0
 11
523.015358965506
 21
348.592401309159
 31
0.0
1001
ACAD
1000
TCW40_DEV_WIDTH
1002
{
1040
-3.0
1002
}
  0
LINE
  5
264
100
AcDbEntity
  8
0
100
AcDbLine
 10
567.294706262503
 20
348.592401309159
 30
0.0
 11
567.294706262503
 21
342.669324386081
 31
0.0
1001
ACAD
1000
TCW40_DEV_WIDTH
1002
{
1040
-3.0
1002
}
  0
LINE
  5
265
100
AcDbEntity
  8
0
100
AcDbLine
 10
567.294706262503
 20
342.669324386081
 30
0.0
 11
577.448552416349
 21
342.669324386081
 31
0.0
1001
ACAD
1000
TCW40_DEV_WIDTH
1002
{
1040
-3.0
1002
}
  0
LINE
  5
266
100
AcDbEntity
  8
0
100
AcDbLine
 10
577.448552416349
 20
342.669324386081
 30
0.0
 11
577.448552416349
 21
332.515478232236
 31
0.0
1001
ACAD
1000
TCW40_DEV_WIDTH
1002
{
1040
-3.0
1002
}
  0
LINE
  5
267
100
AcDbEntity
  8
0
100
AcDbLine
 10
577.448552416349
 20
332.515478232236
 30
0.0
 11
567.294706262503
 21
332.515478232236
 31
0.0
1001
ACAD
1000
TCW40_DEV_WIDTH
1002
{
1040
-3.0
1002
}
  0
LINE
  5
268
100
AcDbEntity
  8
0
100
AcDbLine
 10
567.294706262503
 20
332.515478232236
 30
0.0
 11
567.294706262503
 21
326.592401309159
 31
0.0
1001
ACAD
1000
TCW40_DEV_WIDTH
1002
{
1040
-3.0
1002
}
  0
LINE
  5
269
100
AcDbEntity
  8
0
100
AcDbLine
 10
567.294706262503
 20
332.515478232236
 30
0.0
 11
577.448552416349
 21
332.515478232236
 31
0.0
1001
ACAD
1000
TCW40_DEV_WIDTH
1002
{
1040
-3.0
1002
}
  0
LINE
  5
26A
100
AcDbEntity
  8
0
100
AcDbLine
 10
577.448552416349
 20
332.515478232236
 30
0.0
 11
577.448552416349
 21
342.669324386081
 31
0.0
1001
ACAD
1000
TCW40_DEV_WIDTH
1002
{
1040
-3.0
1002
}
  0
LINE
  5
26B
100
AcDbEntity
  8
0
100
AcDbLine
 10
577.448552416349
 20
342.669324386081
 30
0.0
 11
567.294706262503
 21
342.669324386081
 31
0.0
1001
ACAD
1000
TCW40_DEV_WIDTH
1002
{
1040
-3.0
1002
}
  0
LINE
  5
26C
100
AcDbEntity
  8
0
100
AcDbLine
 10
567.294706262503
 20
342.669324386081
 30
0.0
 11
567.294706262503
 21
348.592401309159
 31
0.0
1001
ACAD
1000
TCW40_DEV_WIDTH
1002
{
1040
-3.0
1002
}
  0
LINE
  5
26D
100
AcDbEntity
  8
0
100
AcDbLine
 10
567.294706262503
 20
326.592401309159
 30
0.0
 11
567.294706262503
 21
332.515478232236
 31
0.0
1001
ACAD
1000
TCW40_DEV_WIDTH
1002
{
1040
-3.0
1002
}
  0
LWPOLYLINE
  5
26E
100
AcDbEntity
  8
0
100
AcDbPolyline
 90
        3
 70
         128
 10
566.10675290174
 20
326.592401309158
 10
569.035269990602
 20
337.482729156141
 10
570.971926286128
 20
348.592401309158
1001
ACAD
1000
TCW40_DEV_WIDTH
1002
{
1040
-3.0
1002
}
  0
LWPOLYLINE
  5
26F
100
AcDbEntity
  8
0
100
AcDbPolyline
 90
        3
 70
         128
 10
614.599605212176
 20
326.592401309158
 10
617.528122301037
 20
337.482729156141
 10
619.464778596564
 20
348.592401309158
1001
ACAD
1000
TCW40_DEV_WIDTH
1002
{
1040
-3.0
1002
}
  0
LWPOLYLINE
  5
270
100
AcDbEntity
  8
0
100
AcDbPolyline
 90
        3
 70
         128
 10
596.452098482641
 20
326.592401309158
 10
599.380615571502
 20
337.482729156141
 10
601.317271867028
 20
348.592401309158
1001
ACAD
1000
TCW40_DEV_WIDTH
1002
{
1040
-3.0
1002
}
  0
LWPOLYLINE
  5
271
100
AcDbEntity
  8
0
100
AcDbPolyline
 90
        3
 70
         128
 10
729.015416321995
 20
326.592401309158
 10
731.943933410856
 20
337.482729156141
 10
733.880589706382
 20
348.592401309158
1001
ACAD
1000
TCW40_DEV_WIDTH
1002
{
1040
-3.0
1002
}
  0
LWPOLYLINE
  5
272
100
AcDbEntity
  8
0
100
AcDbPolyline
 90
        3
 70
         128
 10
640.388156369406
 20
326.592401309158
 10
643.316673458268
 20
337.482729156141
 10
645.253329753793
 20
348.592401309158
1001
ACAD
1000
TCW40_DEV_WIDTH
1002
{
1040
-3.0
1002
}
  0
LWPOLYLINE
  5
273
100
AcDbEntity
  8
0
100
AcDbPolyline
 90
        3
 70
         128
 10
660.245935294646
 20
326.592401309158
 10
663.174452383507
 20
337.482729156141
 10
665.111108679033
 20
348.592401309158
1001
ACAD
1000
TCW40_DEV_WIDTH
1002
{
1040
-3.0
1002
}
  0
LWPOLYLINE
  5
274
100
AcDbEntity
  8
0
100
AcDbPolyline
 90
        3
 70
         128
 10
697.496070005521
 20
326.592401309159
 10
700.424587094382
 20
337.482729156141
 10
702.361243389908
 20
348.592401309158
1001
ACAD
1000
TCW40_DEV_WIDTH
1002
{
1040
-3.0
1002
}
  0
LWPOLYLINE
  5
275
100
AcDbEntity
  8
0
100
AcDbPolyline
 90
        3
 70
         128
 10
771.996339427272
 20
326.592401309159
 10
774.924856516133
 20
337.482729156141
 10
776.861512811659
 20
348.592401309158
1001
ACAD
1000
TCW40_DEV_WIDTH
1002
{
1040
-3.0
1002
}
  0
LWPOLYLINE
  5
276
100
AcDbEntity
  8
0
100
AcDbPolyline
 90
        3
 70
         128
 10
808.29133935666
 20
326.592401309158
 10
811.219856445521
 20
337.482729156141
 10
813.156512741047
 20
348.592401309158
1001
ACAD
1000
TCW40_DEV_WIDTH
1002
{
1040
-3.0
1002
}
  0
LINE
  5
277
100
AcDbEntity
  8
0
100
AcDbLine
 10
567.294706262503
 20
348.592401309159
 30
0.0
 11
814.443169254495
 21
348.592401309159
 31
0.0
1001
ACAD
1000
TCW40_DEV_WIDTH
1002
{
1040
-3.0
1002
}
  0
LINE
  5
278
100
AcDbEntity
  8
0
100
AcDbLine
 10
814.443169254495
 20
326.592401309159
 30
0.0
 11
567.294706262503
 21
326.592401309159
 31
0.0
1001
ACAD
1000
TCW40_DEV_WIDTH
1002
{
1040
-3.0
1002
}
  0
LINE
  5
279
100
AcDbEntity
  8
0
  6
Continuous
 62
           7
100
AcDbLine
 10
313.449268615408
 20
326.592401309159
 30
0.0
 11
567.294706262503
 21
326.592401309159
 31
0.0
1001
ACAD
1000
TCW40_DEV_WIDTH
1002
{
1040
-3.0
1002
}
1001
TCAD
1000
TCW_CUSTOM_DATA
1002
{
1000
#$AUX@_ToolInfo Properties
1070
           8
1000
CMD_LINE@
1002
}
  0
MTEXT
  5
27A
100
AcDbEntity
  8
0
  6
Continuous
 62
           7
100
AcDbMText
 10
32.77099737968
 20
732.54484492067
 30
0.0
 40
24.0
 41
0.0
 71
           1
 72
           1
  1
20mm T&G softwood boards or chipboard to BS5669
 73
           1
 44
1.0
1001
TCAD
1000
TCW_REFPOINT
1002
{
1010
32.77099737968
1020
732.54484492067
1030
0.0
1002
}
1000
TCW_CUSTOM_DATA
1002
{
1000
#$AUX@_ToolInfo Properties
1070
           8
1000
CMD_TEXT@
1002
}
1000
TCW40_TEXT
1002
{
1000
Times New Roman
1070
           0
1070
         257
1002
}
  0
LWPOLYLINE
  5
27B
100
AcDbEntity
  8
0
  6
Continuous
 62
           7
100
AcDbPolyline
 90
       14
 70
         128
 10
-473.974835177198
 20
348.445179139164
 10
-473.833641255625
 20
347.996510925984
 10
-473.581990596928
 20
347.414522385072
 10
-473.271704157418
 20
346.861565749131
 10
-472.906085942777
 20
346.34352903528
 10
-472.489029144925
 20
345.86592842479
 10
-472.02497468636
 20
345.433849525443
 10
-471.518863932134
 20
345.051893218738
 10
-470.976086072992
 20
344.724126668582
 10
-470.402420739956
 20
344.454040013141
 10
-469.803976461401
 20
344.244509200993
 10
-469.187125617958
 20
344.097765367326
 10
-468.558436587851
 20
344.015371076271
 10
-467.924603805202
 20
343.998203682334
1001
ACAD
1000
TCW40_DEV_WIDTH
1002
{
1040
-3.0
1002
}
  0
LWPOLYLINE
  5
27C
100
AcDbEntity
  8
0
100
AcDbPolyline
 90
        7
 70
         128
 10
-451.313303765698
 20
377.016125506882
 10
-453.497123500476
 20
376.881210797258
 10
-455.810407611825
 20
376.493876921719
 10
-458.072173857219
 20
375.867890827641
 10
-460.258492477564
 20
375.009875523242
 10
-462.346231958718
 20
373.92890891371
 10
-464.313303765698
 20
372.636427755875
1001
ACAD
1000
TCW40_DEV_WIDTH
1002
{
1040
-3.0
1002
}
  0
LINE
  5
27D
102
{ACAD_REACTORS
330
41A
102
}
100
AcDbEntity
  8
0
  6
Continuous
 62
           7
100
AcDbLine
 10
-476.342318068885
 20
268.928483455259
 30
0.0
 11
-476.342318068885
 21
246.928483455259
 31
0.0
1001
ACAD
1000
TCW40_DEV_WIDTH
1002
{
1040
-3.0
1002
}
1001
TCAD
1000
TCW_CUSTOM_DATA
1002
{
1000
#$AUX@_ToolInfo Properties
1070
           8
1000
CMD_LINE@
1002
}
  0
LINE
  5
27E
102
{ACAD_REACTORS
330
41A
102
}
100
AcDbEntity
  8
0
  6
Continuous
 62
           7
100
AcDbLine
 10
-476.342318068885
 20
257.928483455259
 30
0.0
 11
-476.342318068885
 21
268.928483455259
 31
0.0
1001
ACAD
1000
TCW40_DEV_WIDTH
1002
{
1040
-3.0
1002
}
1001
TCAD
1000
TCW_CUSTOM_DATA
1002
{
1000
#$AUX@_ToolInfo Properties
1070
           8
1000
CMD_LINE@
1002
}
  0
LINE
  5
27F
102
{ACAD_REACTORS
330
41A
102
}
100
AcDbEntity
  8
0
  6
Continuous
 62
           7
100
AcDbLine
 10
-476.342318068885
 20
268.928483455259
 30
0.0
 11
-476.342318068885
 21
246.928483455259
 31
0.0
1001
ACAD
1000
TCW40_DEV_WIDTH
1002
{
1040
-3.0
1002
}
1001
TCAD
1000
TCW_CUSTOM_DATA
1002
{
1000
#$AUX@_ToolInfo Properties
1070
           8
1000
CMD_LINE@
1002
}
  0
LINE
  5
280
102
{ACAD_REACTORS
330
41A
102
}
100
AcDbEntity
  8
0
  6
Continuous
 62
           7
100
AcDbLine
 10
-476.200828215074
 20
271.760906489457
 30
0.0
 11
-476.342318068885
 21
271.760906489457
 31
0.0
1001
ACAD
1000
TCW40_DEV_WIDTH
1002
{
1040
-3.0
1002
}
  0
LINE
  5
281
102
{ACAD_REACTORS
330
41A
102
}
100
AcDbEntity
  8
0
  6
Continuous
 62
           7
100
AcDbLine
 10
-476.342318068885
 20
271.760906489457
 30
0.0
 11
-476.342318068885
 21
246.928483455259
 31
0.0
1001
ACAD
1000
TCW40_DEV_WIDTH
1002
{
1040
-3.0
1002
}
  0
LINE
  5
282
102
{ACAD_REACTORS
330
41A
102
}
100
AcDbEntity
  8
0
  6
Continuous
 62
           7
100
AcDbLine
 10
-476.342318068885
 20
246.928483455259
 30
0.0
 11
-476.200828215074
 21
246.928483455259
 31
0.0
1001
ACAD
1000
TCW40_DEV_WIDTH
1002
{
1040
-3.0
1002
}
  0
LINE
  5
283
102
{ACAD_REACTORS
330
41A
102
}
100
AcDbEntity
  8
0
  6
Continuous
 62
           7
100
AcDbLine
 10
-391.200828215074
 20
246.925739480301
 30
0.0
 11
48.799171784926
 21
246.925739480301
 31
0.0
1001
ACAD
1000
TCW40_DEV_WIDTH
1002
{
1040
-3.0
1002
}
1001
TCAD
1000
TCW_CUSTOM_DATA
1002
{
1000
#$AUX@_ToolInfo Properties
1070
           8
1000
CMD_LINE@
1002
}
  0
LINE
  5
284
102
{ACAD_REACTORS
330
41A
102
}
100
AcDbEntity
  8
0
  6
Continuous
 62
           7
100
AcDbLine
 10
108.799171784926
 20
246.925739480301
 30
0.0
 11
538.799171784926
 21
246.925739480301
 31
0.0
1001
ACAD
1000
TCW40_DEV_WIDTH
1002
{
1040
-3.0
1002
}
1001
TCAD
1000
TCW_CUSTOM_DATA
1002
{
1000
#$AUX@_ToolInfo Properties
1070
           8
1000
CMD_LINE@
1002
}
  0
LINE
  5
285
102
{ACAD_REACTORS
330
41A
102
}
100
AcDbEntity
  8
0
  6
Continuous
 62
           7
100
AcDbLine
 10
-476.200828215074
 20
246.928483455259
 30
0.0
 11
-476.200828215074
 21
321.928483455259
 31
0.0
1001
ACAD
1000
TCW40_DEV_WIDTH
1002
{
1040
-3.0
1002
}
1001
TCAD
1000
TCW_CUSTOM_DATA
1002
{
1000
#$AUX@_ToolInfo Properties
1070
           8
1000
CMD_POLYLINE@
1002
}
  0
ARC
  5
286
102
{ACAD_REACTORS
330
41A
102
}
100
AcDbEntity
  8
0
100
AcDbCircle
 10
-146.966448221384
 20
303.56668039467
 30
0.0
 40
19.598684282262
100
AcDbArc
 50
-0.660417629724
 51
72.002726467345
1001
ACAD
1000
TCW40_DEV_WIDTH
1002
{
1040
-3.0
1002
}
  0
ARC
  5
287
102
{ACAD_REACTORS
330
41A
102
}
100
AcDbEntity
  8
0
100
AcDbCircle
 10
-169.448521505807
 20
261.456397350141
 30
0.0
 40
29.453240950489
100
AcDbArc
 50
5.441106184698
 51
36.879711558442
1001
ACAD
1000
TCW40_DEV_WIDTH
1002
{
1040
-3.0
1002
}
  0
ARC
  5
288
102
{ACAD_REACTORS
330
41A
102
}
100
AcDbEntity
  8
0
100
AcDbCircle
 10
-111.16985184563
 20
264.521949555744
 30
0.0
 40
28.985397528809
100
AcDbArc
 50
152.752642627227
 51
183.18945085417
1001
ACAD
1000
TCW40_DEV_WIDTH
1002
{
1040
-3.0
1002
}
  0
ARC
  5
289
102
{ACAD_REACTORS
330
41A
102
}
100
AcDbEntity
  8
0
100
AcDbCircle
 10
-154.634133528335
 20
262.325447681439
 30
0.0
 40
14.570850790881
100
AcDbArc
 50
174.598223215051
 51
365.401776784956
1001
ACAD
1000
TCW40_DEV_WIDTH
1002
{
1040
-3.0
1002
}
  0
ARC
  5
28A
102
{ACAD_REACTORS
330
41A
102
}
100
AcDbEntity
  8
0
100
AcDbCircle
 10
-140.291610719193
 20
263.233706387287
 30
0.0
 40
28.985397528809
100
AcDbArc
 50
152.752642627228
 51
183.18945085417
1001
ACAD
1000
TCW40_DEV_WIDTH
1002
{
1040
-3.0
1002
}
  0
ARC
  5
28B
102
{ACAD_REACTORS
330
41A
102
}
100
AcDbEntity
  8
0
100
AcDbCircle
 10
-119.143391566901
 20
304.999625987364
 30
0.0
 40
37.210700754925
100
AcDbArc
 50
178.407805868376
 51
199.915665614924
1001
ACAD
1000
TCW40_DEV_WIDTH
1002
{
1040
-3.0
1002
}
  0
ARC
  5
28C
102
{ACAD_REACTORS
330
41A
102
}
100
AcDbEntity
  8
0
100
AcDbCircle
 10
-193.685255573802
 20
302.3714237168
 30
0.0
 40
37.210700754926
100
AcDbArc
 50
-19.915665614925
 51
1.592194131624
1001
ACAD
1000
TCW40_DEV_WIDTH
1002
{
1040
-3.0
1002
}
  0
ARC
  5
28D
102
{ACAD_REACTORS
330
41A
102
}
100
AcDbEntity
  8
0
100
AcDbCircle
 10
-138.297306835994
 20
304.344843239145
 30
0.0
 40
18.051801549662
100
AcDbArc
 50
98.325059432651
 51
178.152598482266
1001
ACAD
1000
TCW40_DEV_WIDTH
1002
{
1040
-3.0
1002
}
  0
LINE
  5
28E
102
{ACAD_REACTORS
330
41A
102
}
100
AcDbEntity
  8
0
100
AcDbLine
 10
-154.128707347756
 20
292.32429836294
 30
0.0
 11
-145.888956031617
 21
279.132377581942
 31
0.0
1001
ACAD
1000
TCW40_DEV_WIDTH
1002
{
1040
-3.0
1002
}
  0
LINE
  5
28F
102
{ACAD_REACTORS
330
41A
102
}
100
AcDbEntity
  8
0
100
AcDbLine
 10
-158.699939792947
 20
289.696096092375
 30
0.0
 11
-166.060738070305
 21
276.504175311378
 31
0.0
1001
ACAD
1000
TCW40_DEV_WIDTH
1002
{
1040
-3.0
1002
}
  0
ARC
  5
290
102
{ACAD_REACTORS
330
41A
102
}
100
AcDbEntity
  8
0
100
AcDbCircle
 10
-82.184825382524
 20
263.96985671059
 30
0.0
 40
28.985397528809
100
AcDbArc
 50
152.752642627227
 51
183.18945085417
1001
ACAD
1000
TCW40_DEV_WIDTH
1002
{
1040
-3.0
1002
}
  0
ARC
  5
291
102
{ACAD_REACTORS
330
41A
102
}
100
AcDbEntity
  8
0
100
AcDbCircle
 10
-140.463495042699
 20
260.904304504988
 30
0.0
 40
29.45324095049
100
AcDbArc
 50
5.441106184699
 51
36.879711558443
1001
ACAD
1000
TCW40_DEV_WIDTH
1002
{
1040
-3.0
1002
}
  0
ARC
  5
292
102
{ACAD_REACTORS
330
41A
102
}
100
AcDbEntity
  8
0
100
AcDbCircle
 10
-125.649107065228
 20
262.325447681439
 30
0.0
 40
14.570850790881
100
AcDbArc
 50
174.59822321505
 51
365.401776784955
1001
ACAD
1000
TCW40_DEV_WIDTH
1002
{
1040
-3.0
1002
}
  0
ARC
  5
293
102
{ACAD_REACTORS
330
41A
102
}
100
AcDbEntity
  8
0
100
AcDbCircle
 10
-135.578470237133
 20
303.107574040103
 30
0.0
 40
37.210700754926
100
AcDbArc
 50
-19.915665614925
 51
1.592194131624
1001
ACAD
1000
TCW40_DEV_WIDTH
1002
{
1040
-3.0
1002
}
  0
ARC
  5
294
102
{ACAD_REACTORS
330
41A
102
}
100
AcDbEntity
  8
0
100
AcDbCircle
 10
-164.56349670024
 20
303.659666885256
 30
0.0
 40
37.210700754926
100
AcDbArc
 50
-19.915665614925
 51
1.592194131624
1001
ACAD
1000
TCW40_DEV_WIDTH
1002
{
1040
-3.0
1002
}
  0
ARC
  5
295
102
{ACAD_REACTORS
330
41A
102
}
100
AcDbEntity
  8
0
100
AcDbCircle
 10
-90.158365103794
 20
304.447533142211
 30
0.0
 40
37.210700754926
100
AcDbArc
 50
178.407805868376
 51
199.915665614925
1001
ACAD
1000
TCW40_DEV_WIDTH
1002
{
1040
-3.0
1002
}
  0
ARC
  5
296
102
{ACAD_REACTORS
330
41A
102
}
100
AcDbEntity
  8
0
100
AcDbCircle
 10
-109.312280372888
 20
304.344843239145
 30
0.0
 40
18.051801549661
100
AcDbArc
 50
98.32505943265
 51
178.152598482266
1001
ACAD
1000
TCW40_DEV_WIDTH
1002
{
1040
-3.0
1002
}
  0
ARC
  5
297
102
{ACAD_REACTORS
330
41A
102
}
100
AcDbEntity
  8
0
100
AcDbCircle
 10
-117.981421758278
 20
303.56668039467
 30
0.0
 40
19.598684282262
100
AcDbArc
 50
-0.660417629723
 51
72.002726467341
1001
ACAD
1000
TCW40_DEV_WIDTH
1002
{
1040
-3.0
1002
}
  0
LINE
  5
298
102
{ACAD_REACTORS
330
41A
102
}
100
AcDbEntity
  8
0
100
AcDbLine
 10
-125.143680884648
 20
291.772205517786
 30
0.0
 11
-116.903929568511
 21
278.580284736789
 31
0.0
1001
ACAD
1000
TCW40_DEV_WIDTH
1002
{
1040
-3.0
1002
}
  0
LINE
  5
299
102
{ACAD_REACTORS
330
41A
102
}
100
AcDbEntity
  8
0
100
AcDbLine
 10
-129.578180919384
 20
290.984339260832
 30
0.0
 11
-136.938979196743
 21
277.792418479835
 31
0.0
1001
ACAD
1000
TCW40_DEV_WIDTH
1002
{
1040
-3.0
1002
}
  0
LINE
  5
29A
102
{ACAD_REACTORS
330
41A
102
}
100
AcDbEntity
  8
0
100
AcDbLine
 10
-100.593154456278
 20
290.432246415679
 30
0.0
 11
-107.953952733635
 21
277.240325634681
 31
0.0
1001
ACAD
1000
TCW40_DEV_WIDTH
1002
{
1040
-3.0
1002
}
  0
ARC
  5
29B
102
{ACAD_REACTORS
330
41A
102
}
100
AcDbEntity
  8
0
100
AcDbCircle
 10
-198.524549815543
 20
260.904304504988
 30
0.0
 40
29.45324095049
100
AcDbArc
 50
5.441106184699
 51
36.879711558441
1001
ACAD
1000
TCW40_DEV_WIDTH
1002
{
1040
-3.0
1002
}
  0
ARC
  5
29C
102
{ACAD_REACTORS
330
41A
102
}
100
AcDbEntity
  8
0
100
AcDbCircle
 10
-183.710161838072
 20
262.325447681439
 30
0.0
 40
14.570850790881
100
AcDbArc
 50
174.598223215051
 51
365.401776784955
1001
ACAD
1000
TCW40_DEV_WIDTH
1002
{
1040
-3.0
1002
}
  0
ARC
  5
29D
102
{ACAD_REACTORS
330
41A
102
}
100
AcDbEntity
  8
0
100
AcDbCircle
 10
-227.50957627865
 20
261.456397350141
 30
0.0
 40
29.453240950489
100
AcDbArc
 50
5.441106184698
 51
36.879711558443
1001
ACAD
1000
TCW40_DEV_WIDTH
1002
{
1040
-3.0
1002
}
  0
ARC
  5
29E
102
{ACAD_REACTORS
330
41A
102
}
100
AcDbEntity
  8
0
100
AcDbCircle
 10
-169.230906618474
 20
264.521949555744
 30
0.0
 40
28.985397528809
100
AcDbArc
 50
152.752642627227
 51
183.18945085417
1001
ACAD
1000
TCW40_DEV_WIDTH
1002
{
1040
-3.0
1002
}
  0
ARC
  5
29F
102
{ACAD_REACTORS
330
41A
102
}
100
AcDbEntity
  8
0
100
AcDbCircle
 10
-212.695188301179
 20
262.325447681439
 30
0.0
 40
14.570850790881
100
AcDbArc
 50
174.59822321505
 51
365.401776784955
1001
ACAD
1000
TCW40_DEV_WIDTH
1002
{
1040
-3.0
1002
}
  0
ARC
  5
2A0
102
{ACAD_REACTORS
330
41A
102
}
100
AcDbEntity
  8
0
100
AcDbCircle
 10
-198.236828298263
 20
263.969856710591
 30
0.0
 40
28.98539752881
100
AcDbArc
 50
152.752642627227
 51
183.18945085417
1001
ACAD
1000
TCW40_DEV_WIDTH
1002
{
1040
-3.0
1002
}
  0
ARC
  5
2A1
102
{ACAD_REACTORS
330
41A
102
}
100
AcDbEntity
  8
0
100
AcDbCircle
 10
-256.515497958438
 20
260.904304504988
 30
0.0
 40
29.453240950489
100
AcDbArc
 50
5.441106184699
 51
36.879711558443
1001
ACAD
1000
TCW40_DEV_WIDTH
1002
{
1040
-3.0
1002
}
  0
ARC
  5
2A2
102
{ACAD_REACTORS
330
41A
102
}
100
AcDbEntity
  8
0
100
AcDbCircle
 10
-241.701109980967
 20
262.325447681439
 30
0.0
 40
14.570850790881
100
AcDbArc
 50
174.59822321505
 51
365.401776784955
1001
ACAD
1000
TCW40_DEV_WIDTH
1002
{
1040
-3.0
1002
}
  0
ARC
  5
2A3
102
{ACAD_REACTORS
330
41A
102
}
100
AcDbEntity
  8
0
100
AcDbCircle
 10
-227.221854761369
 20
264.521949555744
 30
0.0
 40
28.985397528809
100
AcDbArc
 50
152.752642627227
 51
183.18945085417
1001
ACAD
1000
TCW40_DEV_WIDTH
1002
{
1040
-3.0
1002
}
  0
ARC
  5
2A4
102
{ACAD_REACTORS
330
41A
102
}
100
AcDbEntity
  8
0
100
AcDbCircle
 10
-196.363617736622
 20
304.349450444539
 30
0.0
 40
18.04648243255
100
AcDbArc
 50
98.310665485895
 51
178.158539205585
1001
ACAD
1000
TCW40_DEV_WIDTH
1002
{
1040
-3.0
1002
}
  0
ARC
  5
2A5
102
{ACAD_REACTORS
330
41A
102
}
100
AcDbEntity
  8
0
100
AcDbCircle
 10
-177.204446339744
 20
304.999625987364
 30
0.0
 40
37.210700754926
100
AcDbArc
 50
178.407805868376
 51
199.915665614924
1001
ACAD
1000
TCW40_DEV_WIDTH
1002
{
1040
-3.0
1002
}
  0
ARC
  5
2A6
102
{ACAD_REACTORS
330
41A
102
}
100
AcDbEntity
  8
0
100
AcDbCircle
 10
-251.630473152872
 20
303.107574040103
 30
0.0
 40
37.210700754925
100
AcDbArc
 50
-19.915665614925
 51
1.592194131624
1001
ACAD
1000
TCW40_DEV_WIDTH
1002
{
1040
-3.0
1002
}
  0
ARC
  5
2A7
102
{ACAD_REACTORS
330
41A
102
}
100
AcDbEntity
  8
0
100
AcDbCircle
 10
-206.210368019533
 20
304.447533142211
 30
0.0
 40
37.210700754925
100
AcDbArc
 50
178.407805868376
 51
199.915665614925
1001
ACAD
1000
TCW40_DEV_WIDTH
1002
{
1040
-3.0
1002
}
  0
ARC
  5
2A8
102
{ACAD_REACTORS
330
41A
102
}
100
AcDbEntity
  8
0
100
AcDbCircle
 10
-225.364283288627
 20
304.344843239145
 30
0.0
 40
18.051801549661
100
AcDbArc
 50
98.325059432654
 51
178.152598482266
1001
ACAD
1000
TCW40_DEV_WIDTH
1002
{
1040
-3.0
1002
}
  0
ARC
  5
2A9
102
{ACAD_REACTORS
330
41A
102
}
100
AcDbEntity
  8
0
100
AcDbCircle
 10
-234.033424674018
 20
303.56668039467
 30
0.0
 40
19.598684282263
100
AcDbArc
 50
-0.660417629723
 51
72.002726467341
1001
ACAD
1000
TCW40_DEV_WIDTH
1002
{
1040
-3.0
1002
}
  0
LINE
  5
2AA
102
{ACAD_REACTORS
330
41A
102
}
100
AcDbEntity
  8
0
100
AcDbLine
 10
-241.195683800388
 20
291.772205517786
 30
0.0
 11
-232.955932484251
 21
278.580284736789
 31
0.0
1001
ACAD
1000
TCW40_DEV_WIDTH
1002
{
1040
-3.0
1002
}
  0
LINE
  5
2AB
102
{ACAD_REACTORS
330
41A
102
}
100
AcDbEntity
  8
0
100
AcDbLine
 10
-212.1897621206
 20
292.32429836294
 30
0.0
 11
-203.950010804462
 21
279.132377581942
 31
0.0
1001
ACAD
1000
TCW40_DEV_WIDTH
1002
{
1040
-3.0
1002
}
  0
LINE
  5
2AC
102
{ACAD_REACTORS
330
41A
102
}
100
AcDbEntity
  8
0
100
AcDbLine
 10
-216.645157372018
 20
290.432246415679
 30
0.0
 11
-224.005955649374
 21
277.240325634681
 31
0.0
1001
ACAD
1000
TCW40_DEV_WIDTH
1002
{
1040
-3.0
1002
}
  0
ARC
  5
2AD
102
{ACAD_REACTORS
330
41A
102
}
100
AcDbEntity
  8
0
100
AcDbCircle
 10
-222.624551473083
 20
303.659666885256
 30
0.0
 40
37.210700754926
100
AcDbArc
 50
-19.915665614925
 51
1.592194131624
1001
ACAD
1000
TCW40_DEV_WIDTH
1002
{
1040
-3.0
1002
}
  0
ARC
  5
2AE
102
{ACAD_REACTORS
330
41A
102
}
100
AcDbEntity
  8
0
100
AcDbCircle
 10
-148.219419876637
 20
304.447533142211
 30
0.0
 40
37.210700754926
100
AcDbArc
 50
178.407805868376
 51
199.915665614925
1001
ACAD
1000
TCW40_DEV_WIDTH
1002
{
1040
-3.0
1002
}
  0
ARC
  5
2AF
102
{ACAD_REACTORS
330
41A
102
}
100
AcDbEntity
  8
0
100
AcDbCircle
 10
-167.373335145732
 20
304.344843239145
 30
0.0
 40
18.051801549661
100
AcDbArc
 50
98.325059432652
 51
178.152598482266
1001
ACAD
1000
TCW40_DEV_WIDTH
1002
{
1040
-3.0
1002
}
  0
ARC
  5
2B0
102
{ACAD_REACTORS
330
41A
102
}
100
AcDbEntity
  8
0
100
AcDbCircle
 10
-205.021401110089
 20
303.571091532148
 30
0.0
 40
19.592604169797
100
AcDbArc
 50
-0.666020114716
 51
72.015711812644
1001
ACAD
1000
TCW40_DEV_WIDTH
1002
{
1040
-3.0
1002
}
  0
ARC
  5
2B1
102
{ACAD_REACTORS
330
41A
102
}
100
AcDbEntity
  8
0
100
AcDbCircle
 10
-176.042476531121
 20
303.56668039467
 30
0.0
 40
19.598684282262
100
AcDbArc
 50
-0.660417629724
 51
72.002726467346
1001
ACAD
1000
TCW40_DEV_WIDTH
1002
{
1040
-3.0
1002
}
  0
LINE
  5
2B2
102
{ACAD_REACTORS
330
41A
102
}
100
AcDbEntity
  8
0
100
AcDbLine
 10
-183.204735657492
 20
291.772205517786
 30
0.0
 11
-174.964984341355
 21
278.580284736789
 31
0.0
1001
ACAD
1000
TCW40_DEV_WIDTH
1002
{
1040
-3.0
1002
}
  0
LINE
  5
2B3
102
{ACAD_REACTORS
330
41A
102
}
100
AcDbEntity
  8
0
100
AcDbLine
 10
-187.639235692229
 20
290.984339260832
 30
0.0
 11
-195.000033969587
 21
277.792418479835
 31
0.0
1001
ACAD
1000
TCW40_DEV_WIDTH
1002
{
1040
-3.0
1002
}
  0
ARC
  5
2B4
102
{ACAD_REACTORS
330
41A
102
}
100
AcDbEntity
  8
0
100
AcDbCircle
 10
-263.018451137125
 20
303.56668039467
 30
0.0
 40
19.598684282262
100
AcDbArc
 50
-0.660417629724
 51
72.002726467341
1001
ACAD
1000
TCW40_DEV_WIDTH
1002
{
1040
-3.0
1002
}
  0
ARC
  5
2B5
102
{ACAD_REACTORS
330
41A
102
}
100
AcDbEntity
  8
0
100
AcDbCircle
 10
-285.500524421546
 20
261.456397350141
 30
0.0
 40
29.45324095049
100
AcDbArc
 50
5.441106184698
 51
36.879711558444
1001
ACAD
1000
TCW40_DEV_WIDTH
1002
{
1040
-3.0
1002
}
  0
ARC
  5
2B6
102
{ACAD_REACTORS
330
41A
102
}
100
AcDbEntity
  8
0
100
AcDbCircle
 10
-227.221854761369
 20
264.521949555744
 30
0.0
 40
28.985397528809
100
AcDbArc
 50
152.752642627227
 51
183.18945085417
1001
ACAD
1000
TCW40_DEV_WIDTH
1002
{
1040
-3.0
1002
}
  0
ARC
  5
2B7
102
{ACAD_REACTORS
330
41A
102
}
100
AcDbEntity
  8
0
100
AcDbCircle
 10
-270.686136444074
 20
262.325447681439
 30
0.0
 40
14.570850790881
100
AcDbArc
 50
174.598223215051
 51
365.401776784956
1001
ACAD
1000
TCW40_DEV_WIDTH
1002
{
1040
-3.0
1002
}
  0
ARC
  5
2B8
102
{ACAD_REACTORS
330
41A
102
}
100
AcDbEntity
  8
0
100
AcDbCircle
 10
-256.343613634932
 20
263.233706387287
 30
0.0
 40
28.985397528809
100
AcDbArc
 50
152.752642627228
 51
183.18945085417
1001
ACAD
1000
TCW40_DEV_WIDTH
1002
{
1040
-3.0
1002
}
  0
ARC
  5
2B9
102
{ACAD_REACTORS
330
41A
102
}
100
AcDbEntity
  8
0
100
AcDbCircle
 10
-235.195394482641
 20
304.999625987364
 30
0.0
 40
37.210700754926
100
AcDbArc
 50
178.407805868376
 51
199.915665614925
1001
ACAD
1000
TCW40_DEV_WIDTH
1002
{
1040
-3.0
1002
}
  0
ARC
  5
2BA
102
{ACAD_REACTORS
330
41A
102
}
100
AcDbEntity
  8
0
100
AcDbCircle
 10
-309.737258489541
 20
302.3714237168
 30
0.0
 40
37.210700754925
100
AcDbArc
 50
-19.915665614925
 51
1.592194131624
1001
ACAD
1000
TCW40_DEV_WIDTH
1002
{
1040
-3.0
1002
}
  0
ARC
  5
2BB
102
{ACAD_REACTORS
330
41A
102
}
100
AcDbEntity
  8
0
100
AcDbCircle
 10
-254.349309751735
 20
304.344843239145
 30
0.0
 40
18.051801549661
100
AcDbArc
 50
98.325059432649
 51
178.152598482266
1001
ACAD
1000
TCW40_DEV_WIDTH
1002
{
1040
-3.0
1002
}
  0
LINE
  5
2BC
102
{ACAD_REACTORS
330
41A
102
}
100
AcDbEntity
  8
0
100
AcDbLine
 10
-270.180710263496
 20
292.32429836294
 30
0.0
 11
-261.940958947358
 21
279.132377581942
 31
0.0
1001
ACAD
1000
TCW40_DEV_WIDTH
1002
{
1040
-3.0
1002
}
  0
LINE
  5
2BD
102
{ACAD_REACTORS
330
41A
102
}
100
AcDbEntity
  8
0
100
AcDbLine
 10
-274.751942708687
 20
289.696096092375
 30
0.0
 11
-282.112740986045
 21
276.504175311378
 31
0.0
1001
ACAD
1000
TCW40_DEV_WIDTH
1002
{
1040
-3.0
1002
}
  0
ARC
  5
2BE
102
{ACAD_REACTORS
330
41A
102
}
100
AcDbEntity
  8
0
100
AcDbCircle
 10
-280.61549961598
 20
303.659666885256
 30
0.0
 40
37.210700754926
100
AcDbArc
 50
-19.915665614925
 51
1.592194131624
1001
ACAD
1000
TCW40_DEV_WIDTH
1002
{
1040
-3.0
1002
}
  0
LINE
  5
2BF
102
{ACAD_REACTORS
330
41A
102
}
100
AcDbEntity
  8
0
100
AcDbLine
 10
-245.630183835124
 20
290.984339260832
 30
0.0
 11
-252.990982112482
 21
277.792418479835
 31
0.0
1001
ACAD
1000
TCW40_DEV_WIDTH
1002
{
1040
-3.0
1002
}
  0
ARC
  5
2C0
102
{ACAD_REACTORS
330
41A
102
}
100
AcDbEntity
  8
0
100
AcDbCircle
 10
-314.576552731283
 20
260.904304504988
 30
0.0
 40
29.453240950489
100
AcDbArc
 50
5.441106184699
 51
36.879711558442
1001
ACAD
1000
TCW40_DEV_WIDTH
1002
{
1040
-3.0
1002
}
  0
ARC
  5
2C1
102
{ACAD_REACTORS
330
41A
102
}
100
AcDbEntity
  8
0
100
AcDbCircle
 10
-299.762164753813
 20
262.325447681439
 30
0.0
 40
14.570850790881
100
AcDbArc
 50
174.59822321505
 51
365.401776784955
1001
ACAD
1000
TCW40_DEV_WIDTH
1002
{
1040
-3.0
1002
}
  0
ARC
  5
2C2
102
{ACAD_REACTORS
330
41A
102
}
100
AcDbEntity
  8
0
100
AcDbCircle
 10
-343.56157919439
 20
261.456397350141
 30
0.0
 40
29.453240950489
100
AcDbArc
 50
5.441106184698
 51
36.879711558443
1001
ACAD
1000
TCW40_DEV_WIDTH
1002
{
1040
-3.0
1002
}
  0
ARC
  5
2C3
102
{ACAD_REACTORS
330
41A
102
}
100
AcDbEntity
  8
0
100
AcDbCircle
 10
-285.282909534214
 20
264.521949555744
 30
0.0
 40
28.985397528809
100
AcDbArc
 50
152.752642627227
 51
183.18945085417
1001
ACAD
1000
TCW40_DEV_WIDTH
1002
{
1040
-3.0
1002
}
  0
ARC
  5
2C4
102
{ACAD_REACTORS
330
41A
102
}
100
AcDbEntity
  8
0
100
AcDbCircle
 10
-328.747191216919
 20
262.325447681439
 30
0.0
 40
14.570850790881
100
AcDbArc
 50
174.598223215051
 51
365.401776784955
1001
ACAD
1000
TCW40_DEV_WIDTH
1002
{
1040
-3.0
1002
}
  0
ARC
  5
2C5
102
{ACAD_REACTORS
330
41A
102
}
100
AcDbEntity
  8
0
100
AcDbCircle
 10
-314.288831214003
 20
263.969856710591
 30
0.0
 40
28.985397528809
100
AcDbArc
 50
152.752642627227
 51
183.18945085417
1001
ACAD
1000
TCW40_DEV_WIDTH
1002
{
1040
-3.0
1002
}
  0
ARC
  5
2C6
102
{ACAD_REACTORS
330
41A
102
}
100
AcDbEntity
  8
0
100
AcDbCircle
 10
-372.56750087418
 20
260.904304504988
 30
0.0
 40
29.45324095049
100
AcDbArc
 50
5.441106184699
 51
36.879711558442
1001
ACAD
1000
TCW40_DEV_WIDTH
1002
{
1040
-3.0
1002
}
  0
ARC
  5
2C7
102
{ACAD_REACTORS
330
41A
102
}
100
AcDbEntity
  8
0
100
AcDbCircle
 10
-357.753112896708
 20
262.325447681439
 30
0.0
 40
14.570850790881
100
AcDbArc
 50
174.59822321505
 51
365.401776784955
1001
ACAD
1000
TCW40_DEV_WIDTH
1002
{
1040
-3.0
1002
}
  0
ARC
  5
2C8
102
{ACAD_REACTORS
330
41A
102
}
100
AcDbEntity
  8
0
100
AcDbCircle
 10
-343.27385767711
 20
264.521949555744
 30
0.0
 40
28.985397528809
100
AcDbArc
 50
152.752642627228
 51
183.18945085417
1001
ACAD
1000
TCW40_DEV_WIDTH
1002
{
1040
-3.0
1002
}
  0
ARC
  5
2C9
102
{ACAD_REACTORS
330
41A
102
}
100
AcDbEntity
  8
0
100
AcDbCircle
 10
-312.415620652362
 20
304.349450444539
 30
0.0
 40
18.04648243255
100
AcDbArc
 50
98.3106654859
 51
178.158539205585
1001
ACAD
1000
TCW40_DEV_WIDTH
1002
{
1040
-3.0
1002
}
  0
ARC
  5
2CA
102
{ACAD_REACTORS
330
41A
102
}
100
AcDbEntity
  8
0
100
AcDbCircle
 10
-293.256449255485
 20
304.999625987364
 30
0.0
 40
37.210700754926
100
AcDbArc
 50
178.407805868376
 51
199.915665614925
1001
ACAD
1000
TCW40_DEV_WIDTH
1002
{
1040
-3.0
1002
}
  0
ARC
  5
2CB
102
{ACAD_REACTORS
330
41A
102
}
100
AcDbEntity
  8
0
100
AcDbCircle
 10
-367.682476068612
 20
303.107574040103
 30
0.0
 40
37.210700754925
100
AcDbArc
 50
-19.915665614925
 51
1.592194131624
1001
ACAD
1000
TCW40_DEV_WIDTH
1002
{
1040
-3.0
1002
}
  0
ARC
  5
2CC
102
{ACAD_REACTORS
330
41A
102
}
100
AcDbEntity
  8
0
100
AcDbCircle
 10
-322.262370935272
 20
304.447533142211
 30
0.0
 40
37.210700754926
100
AcDbArc
 50
178.407805868376
 51
199.915665614925
1001
ACAD
1000
TCW40_DEV_WIDTH
1002
{
1040
-3.0
1002
}
  0
ARC
  5
2CD
102
{ACAD_REACTORS
330
41A
102
}
100
AcDbEntity
  8
0
100
AcDbCircle
 10
-341.416286204367
 20
304.344843239145
 30
0.0
 40
18.051801549661
100
AcDbArc
 50
98.325059432651
 51
178.152598482266
1001
ACAD
1000
TCW40_DEV_WIDTH
1002
{
1040
-3.0
1002
}
  0
ARC
  5
2CE
102
{ACAD_REACTORS
330
41A
102
}
100
AcDbEntity
  8
0
100
AcDbCircle
 10
-350.085427589758
 20
303.56668039467
 30
0.0
 40
19.598684282263
100
AcDbArc
 50
-0.660417629723
 51
72.002726467341
1001
ACAD
1000
TCW40_DEV_WIDTH
1002
{
1040
-3.0
1002
}
  0
LINE
  5
2CF
102
{ACAD_REACTORS
330
41A
102
}
100
AcDbEntity
  8
0
100
AcDbLine
 10
-357.247686716128
 20
291.772205517786
 30
0.0
 11
-349.00793539999
 21
278.580284736789
 31
0.0
1001
ACAD
1000
TCW40_DEV_WIDTH
1002
{
1040
-3.0
1002
}
  0
LINE
  5
2D0
102
{ACAD_REACTORS
330
41A
102
}
100
AcDbEntity
  8
0
100
AcDbLine
 10
-328.241765036339
 20
292.32429836294
 30
0.0
 11
-320.002013720201
 21
279.132377581942
 31
0.0
1001
ACAD
1000
TCW40_DEV_WIDTH
1002
{
1040
-3.0
1002
}
  0
LINE
  5
2D1
102
{ACAD_REACTORS
330
41A
102
}
100
AcDbEntity
  8
0
100
AcDbLine
 10
-332.697160287758
 20
290.432246415679
 30
0.0
 11
-340.057958565115
 21
277.240325634681
 31
0.0
1001
ACAD
1000
TCW40_DEV_WIDTH
1002
{
1040
-3.0
1002
}
  0
ARC
  5
2D2
102
{ACAD_REACTORS
330
41A
102
}
100
AcDbEntity
  8
0
100
AcDbCircle
 10
-338.676554388823
 20
303.659666885256
 30
0.0
 40
37.210700754925
100
AcDbArc
 50
-19.915665614925
 51
1.592194131624
1001
ACAD
1000
TCW40_DEV_WIDTH
1002
{
1040
-3.0
1002
}
  0
ARC
  5
2D3
102
{ACAD_REACTORS
330
41A
102
}
100
AcDbEntity
  8
0
100
AcDbCircle
 10
-264.271422792378
 20
304.447533142211
 30
0.0
 40
37.210700754926
100
AcDbArc
 50
178.407805868376
 51
199.915665614925
1001
ACAD
1000
TCW40_DEV_WIDTH
1002
{
1040
-3.0
1002
}
  0
ARC
  5
2D4
102
{ACAD_REACTORS
330
41A
102
}
100
AcDbEntity
  8
0
100
AcDbCircle
 10
-283.425338061472
 20
304.344843239145
 30
0.0
 40
18.051801549661
100
AcDbArc
 50
98.325059432652
 51
178.152598482266
1001
ACAD
1000
TCW40_DEV_WIDTH
1002
{
1040
-3.0
1002
}
  0
ARC
  5
2D5
102
{ACAD_REACTORS
330
41A
102
}
100
AcDbEntity
  8
0
100
AcDbCircle
 10
-321.073404025827
 20
303.571091532148
 30
0.0
 40
19.592604169796
100
AcDbArc
 50
-0.666020114716
 51
72.015711812654
1001
ACAD
1000
TCW40_DEV_WIDTH
1002
{
1040
-3.0
1002
}
  0
ARC
  5
2D6
102
{ACAD_REACTORS
330
41A
102
}
100
AcDbEntity
  8
0
100
AcDbCircle
 10
-292.094479446861
 20
303.56668039467
 30
0.0
 40
19.598684282262
100
AcDbArc
 50
-0.660417629723
 51
72.002726467343
1001
ACAD
1000
TCW40_DEV_WIDTH
1002
{
1040
-3.0
1002
}
  0
LINE
  5
2D7
102
{ACAD_REACTORS
330
41A
102
}
100
AcDbEntity
  8
0
100
AcDbLine
 10
-299.256738573233
 20
291.772205517786
 30
0.0
 11
-291.016987257095
 21
278.580284736789
 31
0.0
1001
ACAD
1000
TCW40_DEV_WIDTH
1002
{
1040
-3.0
1002
}
  0
LINE
  5
2D8
102
{ACAD_REACTORS
330
41A
102
}
100
AcDbEntity
  8
0
100
AcDbLine
 10
-303.691238607968
 20
290.984339260832
 30
0.0
 11
-311.052036885326
 21
277.792418479835
 31
0.0
1001
ACAD
1000
TCW40_DEV_WIDTH
1002
{
1040
-3.0
1002
}
  0
ARC
  5
2D9
102
{ACAD_REACTORS
330
41A
102
}
100
AcDbEntity
  8
0
100
AcDbCircle
 10
-377.747246111334
 20
303.966901214598
 30
0.0
 40
18.284897488447
100
AcDbArc
 50
-1.962330291059
 51
75.000804908552
1001
ACAD
1000
TCW40_DEV_WIDTH
1002
{
1040
-3.0
1002
}
  0
ARC
  5
2DA
102
{ACAD_REACTORS
330
41A
102
}
100
AcDbEntity
  8
0
100
AcDbCircle
 10
-401.552527337285
 20
261.456397350141
 30
0.0
 40
29.453240950489
100
AcDbArc
 50
5.441106184698
 51
36.879711558442
1001
ACAD
1000
TCW40_DEV_WIDTH
1002
{
1040
-3.0
1002
}
  0
ARC
  5
2DB
102
{ACAD_REACTORS
330
41A
102
}
100
AcDbEntity
  8
0
100
AcDbCircle
 10
-343.27385767711
 20
264.521949555744
 30
0.0
 40
28.985397528809
100
AcDbArc
 50
152.752642627228
 51
183.18945085417
1001
ACAD
1000
TCW40_DEV_WIDTH
1002
{
1040
-3.0
1002
}
  0
ARC
  5
2DC
102
{ACAD_REACTORS
330
41A
102
}
100
AcDbEntity
  8
0
100
AcDbCircle
 10
-386.738139359814
 20
262.325447681439
 30
0.0
 40
14.570850790881
100
AcDbArc
 50
174.598223215051
 51
365.401776784956
1001
ACAD
1000
TCW40_DEV_WIDTH
1002
{
1040
-3.0
1002
}
  0
ARC
  5
2DD
102
{ACAD_REACTORS
330
41A
102
}
100
AcDbEntity
  8
0
100
AcDbCircle
 10
-372.395616550671
 20
263.233706387287
 30
0.0
 40
28.98539752881
100
AcDbArc
 50
152.752642627227
 51
183.18945085417
1001
ACAD
1000
TCW40_DEV_WIDTH
1002
{
1040
-3.0
1002
}
  0
ARC
  5
2DE
102
{ACAD_REACTORS
330
41A
102
}
100
AcDbEntity
  8
0
100
AcDbCircle
 10
-351.24739739838
 20
304.999625987364
 30
0.0
 40
37.210700754925
100
AcDbArc
 50
178.407805868376
 51
199.915665614924
1001
ACAD
1000
TCW40_DEV_WIDTH
1002
{
1040
-3.0
1002
}
  0
ARC
  5
2DF
102
{ACAD_REACTORS
330
41A
102
}
100
AcDbEntity
  8
0
100
AcDbCircle
 10
-425.789261405282
 20
302.3714237168
 30
0.0
 40
37.210700754926
100
AcDbArc
 50
-19.915665614925
 51
1.592194131624
1001
ACAD
1000
TCW40_DEV_WIDTH
1002
{
1040
-3.0
1002
}
  0
ARC
  5
2E0
102
{ACAD_REACTORS
330
41A
102
}
100
AcDbEntity
  8
0
100
AcDbCircle
 10
-371.53653174262
 20
304.785801029528
 30
0.0
 40
16.90778757258
100
AcDbArc
 50
95.016573112791
 51
179.522218934252
1001
ACAD
1000
TCW40_DEV_WIDTH
1002
{
1040
-3.0
1002
}
  0
LINE
  5
2E1
102
{ACAD_REACTORS
330
41A
102
}
100
AcDbEntity
  8
0
100
AcDbLine
 10
-386.232713179235
 20
292.32429836294
 30
0.0
 11
-377.992961863097
 21
279.132377581942
 31
0.0
1001
ACAD
1000
TCW40_DEV_WIDTH
1002
{
1040
-3.0
1002
}
  0
LINE
  5
2E2
102
{ACAD_REACTORS
330
41A
102
}
100
AcDbEntity
  8
0
100
AcDbLine
 10
-390.803945624426
 20
289.696096092375
 30
0.0
 11
-398.164743901784
 21
276.504175311378
 31
0.0
1001
ACAD
1000
TCW40_DEV_WIDTH
1002
{
1040
-3.0
1002
}
  0
ARC
  5
2E3
102
{ACAD_REACTORS
330
41A
102
}
100
AcDbEntity
  8
0
100
AcDbCircle
 10
-396.667502531719
 20
303.659666885256
 30
0.0
 40
37.210700754925
100
AcDbArc
 50
-19.915665614925
 51
1.592194131624
1001
ACAD
1000
TCW40_DEV_WIDTH
1002
{
1040
-3.0
1002
}
  0
LINE
  5
2E4
102
{ACAD_REACTORS
330
41A
102
}
100
AcDbEntity
  8
0
100
AcDbLine
 10
-361.682186750864
 20
290.984339260832
 30
0.0
 11
-369.042985028223
 21
277.792418479835
 31
0.0
1001
ACAD
1000
TCW40_DEV_WIDTH
1002
{
1040
-3.0
1002
}
  0
ARC
  5
2E5
102
{ACAD_REACTORS
330
41A
102
}
100
AcDbEntity
  8
0
100
AcDbCircle
 10
-406.867101760075
 20
304.031459220373
 30
0.0
 40
18.284897488447
100
AcDbArc
 50
-1.962330291059
 51
75.00080490855
1001
ACAD
1000
TCW40_DEV_WIDTH
1002
{
1040
-3.0
1002
}
  0
ARC
  5
2E6
102
{ACAD_REACTORS
330
41A
102
}
100
AcDbEntity
  8
0
100
AcDbCircle
 10
-430.672382986026
 20
261.520955355916
 30
0.0
 40
29.45324095049
100
AcDbArc
 50
5.441106184698
 51
36.879711558444
1001
ACAD
1000
TCW40_DEV_WIDTH
1002
{
1040
-3.0
1002
}
  0
ARC
  5
2E7
102
{ACAD_REACTORS
330
41A
102
}
100
AcDbEntity
  8
0
100
AcDbCircle
 10
-415.857995008554
 20
262.390005687213
 30
0.0
 40
14.57085079088
100
AcDbArc
 50
174.59822321505
 51
365.401776784956
1001
ACAD
1000
TCW40_DEV_WIDTH
1002
{
1040
-3.0
1002
}
  0
ARC
  5
2E8
102
{ACAD_REACTORS
330
41A
102
}
100
AcDbEntity
  8
0
100
AcDbCircle
 10
-401.515472199412
 20
263.298264393062
 30
0.0
 40
28.985397528809
100
AcDbArc
 50
152.752642627227
 51
183.18945085417
1001
ACAD
1000
TCW40_DEV_WIDTH
1002
{
1040
-3.0
1002
}
  0
ARC
  5
2E9
102
{ACAD_REACTORS
330
41A
102
}
100
AcDbEntity
  8
0
100
AcDbCircle
 10
-380.367253047119
 20
305.064183993139
 30
0.0
 40
37.210700754926
100
AcDbArc
 50
178.407805868376
 51
199.915665614925
1001
ACAD
1000
TCW40_DEV_WIDTH
1002
{
1040
-3.0
1002
}
  0
ARC
  5
2EA
102
{ACAD_REACTORS
330
41A
102
}
100
AcDbEntity
  8
0
100
AcDbCircle
 10
-454.909117054021
 20
302.435981722574
 30
0.0
 40
37.210700754925
100
AcDbArc
 50
-19.915665614925
 51
1.592194131624
1001
ACAD
1000
TCW40_DEV_WIDTH
1002
{
1040
-3.0
1002
}
  0
ARC
  5
2EB
102
{ACAD_REACTORS
330
41A
102
}
100
AcDbEntity
  8
0
100
AcDbCircle
 10
-400.656387391361
 20
304.850359035303
 30
0.0
 40
16.907787572579
100
AcDbArc
 50
95.016573112791
 51
179.522218934252
1001
ACAD
1000
TCW40_DEV_WIDTH
1002
{
1040
-3.0
1002
}
  0
LINE
  5
2EC
102
{ACAD_REACTORS
330
41A
102
}
100
AcDbEntity
  8
0
100
AcDbLine
 10
-415.352568827975
 20
292.388856368714
 30
0.0
 11
-407.112817511836
 21
279.196935587717
 31
0.0
1001
ACAD
1000
TCW40_DEV_WIDTH
1002
{
1040
-3.0
1002
}
  0
LINE
  5
2ED
102
{ACAD_REACTORS
330
41A
102
}
100
AcDbEntity
  8
0
100
AcDbLine
 10
-419.923801273166
 20
289.76065409815
 30
0.0
 11
-427.284599550524
 21
276.568733317153
 31
0.0
1001
ACAD
1000
TCW40_DEV_WIDTH
1002
{
1040
-3.0
1002
}
  0
ARC
  5
2EE
102
{ACAD_REACTORS
330
41A
102
}
100
AcDbEntity
  8
0
100
AcDbCircle
 10
-438.718799260748
 20
302.561172756595
 30
0.0
 40
21.019942744833
100
AcDbArc
 50
0.620335952127
 51
69.163723124489
1001
ACAD
1000
TCW40_DEV_WIDTH
1002
{
1040
-3.0
1002
}
  0
ARC
  5
2EF
102
{ACAD_REACTORS
330
41A
102
}
100
AcDbEntity
  8
0
100
AcDbCircle
 10
-459.779544149447
 20
260.904364674484
 30
0.0
 40
29.45324095049
100
AcDbArc
 50
5.441106184698
 51
36.879711558443
1001
ACAD
1000
TCW40_DEV_WIDTH
1002
{
1040
-3.0
1002
}
  0
ARC
  5
2F0
102
{ACAD_REACTORS
330
41A
102
}
100
AcDbEntity
  8
0
100
AcDbCircle
 10
-444.965156171975
 20
262.286147701663
 30
0.0
 40
14.531550811106
100
AcDbArc
 50
176.611289421423
 51
363.388710578591
1001
ACAD
1000
TCW40_DEV_WIDTH
1002
{
1040
-3.0
1002
}
  0
ARC
  5
2F1
102
{ACAD_REACTORS
330
41A
102
}
100
AcDbEntity
  8
0
100
AcDbCircle
 10
-430.622633362832
 20
262.68167371163
 30
0.0
 40
28.98539752881
100
AcDbArc
 50
152.752642627227
 51
183.18945085417
1001
ACAD
1000
TCW40_DEV_WIDTH
1002
{
1040
-3.0
1002
}
  0
ARC
  5
2F2
102
{ACAD_REACTORS
330
41A
102
}
100
AcDbEntity
  8
0
100
AcDbCircle
 10
-409.474414210542
 20
304.447593311706
 30
0.0
 40
37.210700754925
100
AcDbArc
 50
178.407805868376
 51
199.915665614925
1001
ACAD
1000
TCW40_DEV_WIDTH
1002
{
1040
-3.0
1002
}
  0
ARC
  5
2F3
102
{ACAD_REACTORS
330
41A
102
}
100
AcDbEntity
  8
0
100
AcDbCircle
 10
-484.016278217443
 20
301.819391041142
 30
0.0
 40
37.210700754926
100
AcDbArc
 50
-19.915665614925
 51
1.592194131624
1001
ACAD
1000
TCW40_DEV_WIDTH
1002
{
1040
-3.0
1002
}
  0
ARC
  5
2F4
102
{ACAD_REACTORS
330
41A
102
}
100
AcDbEntity
  8
0
100
AcDbCircle
 10
-427.413345051583
 20
303.303058024498
 30
0.0
 40
19.287200947724
100
AcDbArc
 50
101.449792976804
 51
176.814698896301
1001
ACAD
1000
TCW40_DEV_WIDTH
1002
{
1040
-3.0
1002
}
  0
LINE
  5
2F5
102
{ACAD_REACTORS
330
41A
102
}
100
AcDbEntity
  8
0
100
AcDbLine
 10
-444.459729991397
 20
291.772265687282
 30
0.0
 11
-436.219978675258
 21
278.580344906285
 31
0.0
1001
ACAD
1000
TCW40_DEV_WIDTH
1002
{
1040
-3.0
1002
}
  0
LINE
  5
2F6
102
{ACAD_REACTORS
330
41A
102
}
100
AcDbEntity
  8
0
100
AcDbLine
 10
-449.030962436589
 20
289.144063416718
 30
0.0
 11
-456.391760713945
 21
275.952142635721
 31
0.0
1001
ACAD
1000
TCW40_DEV_WIDTH
1002
{
1040
-3.0
1002
}
  0
ARC
  5
2F7
102
{ACAD_REACTORS
330
41A
102
}
100
AcDbEntity
  8
0
100
AcDbCircle
 10
-467.670327675169
 20
302.67808942421
 30
0.0
 40
20.851119739292
100
AcDbArc
 50
0.48147818369
 51
69.481738076944
1001
ACAD
1000
TCW40_DEV_WIDTH
1002
{
1040
-3.0
1002
}
  0
ARC
  5
2F8
102
{ACAD_REACTORS
330
41A
102
}
100
AcDbEntity
  8
0
100
AcDbCircle
 10
-488.899399798187
 20
260.968922680259
 30
0.0
 40
29.453240950489
100
AcDbArc
 50
5.441106184698
 51
36.879711558442
1001
ACAD
1000
TCW40_DEV_WIDTH
1002
{
1040
-3.0
1002
}
  0
ARC
  5
2F9
102
{ACAD_REACTORS
330
41A
102
}
100
AcDbEntity
  8
0
100
AcDbCircle
 10
-474.085011820716
 20
262.28987051455
 30
0.0
 40
14.535273623993
100
AcDbArc
 50
-98.369955774636
 51
3.62809481171
1001
ACAD
1000
TCW40_DEV_WIDTH
1002
{
1040
-3.0
1002
}
  0
ARC
  5
2FA
102
{ACAD_REACTORS
330
41A
102
}
100
AcDbEntity
  8
0
100
AcDbCircle
 10
-438.594269859282
 20
304.512151317481
 30
0.0
 40
37.210700754926
100
AcDbArc
 50
178.407805868376
 51
199.915665614925
1001
ACAD
1000
TCW40_DEV_WIDTH
1002
{
1040
-3.0
1002
}
  0
ARC
  5
2FB
102
{ACAD_REACTORS
330
41A
102
}
100
AcDbEntity
  8
0
100
AcDbCircle
 10
-456.678359865839
 20
303.425100896824
 30
0.0
 40
19.139135451622
100
AcDbArc
 50
101.09640970612
 51
176.962376275089
1001
ACAD
1000
TCW40_DEV_WIDTH
1002
{
1040
-3.0
1002
}
  0
LINE
  5
2FC
102
{ACAD_REACTORS
330
41A
102
}
100
AcDbEntity
  8
0
100
AcDbLine
 10
-473.579585640136
 20
291.836823693057
 30
0.0
 11
-465.339834323999
 21
278.64490291206
 31
0.0
1001
ACAD
1000
TCW40_DEV_WIDTH
1002
{
1040
-3.0
1002
}
  0
ARC
  5
2FD
102
{ACAD_REACTORS
330
41A
102
}
100
AcDbEntity
  8
0
100
AcDbCircle
 10
-53.172540764101
 20
263.969856710592
 30
0.0
 40
28.98539752881
100
AcDbArc
 50
152.752642627227
 51
183.18945085417
1001
ACAD
1000
TCW40_DEV_WIDTH
1002
{
1040
-3.0
1002
}
  0
ARC
  5
2FE
102
{ACAD_REACTORS
330
41A
102
}
100
AcDbEntity
  8
0
100
AcDbCircle
 10
-111.451210424277
 20
260.90430450499
 30
0.0
 40
29.453240950489
100
AcDbArc
 50
5.441106184698
 51
36.879711558443
1001
ACAD
1000
TCW40_DEV_WIDTH
1002
{
1040
-3.0
1002
}
  0
ARC
  5
2FF
102
{ACAD_REACTORS
330
41A
102
}
100
AcDbEntity
  8
0
100
AcDbCircle
 10
-96.636822446806
 20
262.32544768144
 30
0.0
 40
14.570850790881
100
AcDbArc
 50
174.598223215051
 51
365.401776784955
1001
ACAD
1000
TCW40_DEV_WIDTH
1002
{
1040
-3.0
1002
}
  0
ARC
  5
300
102
{ACAD_REACTORS
330
41A
102
}
100
AcDbEntity
  8
0
100
AcDbCircle
 10
-106.56618561871
 20
303.107574040105
 30
0.0
 40
37.210700754926
100
AcDbArc
 50
-19.915665614925
 51
1.592194131624
1001
ACAD
1000
TCW40_DEV_WIDTH
1002
{
1040
-3.0
1002
}
  0
ARC
  5
301
102
{ACAD_REACTORS
330
41A
102
}
100
AcDbEntity
  8
0
100
AcDbCircle
 10
-61.146080485371
 20
304.447533142212
 30
0.0
 40
37.210700754926
100
AcDbArc
 50
178.407805868376
 51
199.915665614924
1001
ACAD
1000
TCW40_DEV_WIDTH
1002
{
1040
-3.0
1002
}
  0
ARC
  5
302
102
{ACAD_REACTORS
330
41A
102
}
100
AcDbEntity
  8
0
100
AcDbCircle
 10
-80.299995754466
 20
304.344843239147
 30
0.0
 40
18.05180154966
100
AcDbArc
 50
98.325059432652
 51
178.152598482266
1001
ACAD
1000
TCW40_DEV_WIDTH
1002
{
1040
-3.0
1002
}
  0
ARC
  5
303
102
{ACAD_REACTORS
330
41A
102
}
100
AcDbEntity
  8
0
100
AcDbCircle
 10
-88.969137139855
 20
303.566680394672
 30
0.0
 40
19.598684282262
100
AcDbArc
 50
-0.660417629723
 51
72.002726467343
1001
ACAD
1000
TCW40_DEV_WIDTH
1002
{
1040
-3.0
1002
}
  0
LINE
  5
304
102
{ACAD_REACTORS
330
41A
102
}
100
AcDbEntity
  8
0
100
AcDbLine
 10
-96.131396266226
 20
291.772205517788
 30
0.0
 11
-87.891644950089
 21
278.580284736791
 31
0.0
1001
ACAD
1000
TCW40_DEV_WIDTH
1002
{
1040
-3.0
1002
}
  0
LINE
  5
305
102
{ACAD_REACTORS
330
41A
102
}
100
AcDbEntity
  8
0
100
AcDbLine
 10
-71.580869837856
 20
290.432246415681
 30
0.0
 11
-78.941668115213
 21
277.240325634683
 31
0.0
1001
ACAD
1000
TCW40_DEV_WIDTH
1002
{
1040
-3.0
1002
}
  0
ARC
  5
306
102
{ACAD_REACTORS
330
41A
102
}
100
AcDbEntity
  8
0
100
AcDbCircle
 10
-24.187514300994
 20
264.242577701226
 30
0.0
 40
28.985397528809
100
AcDbArc
 50
152.752642627227
 51
183.18945085417
1001
ACAD
1000
TCW40_DEV_WIDTH
1002
{
1040
-3.0
1002
}
  0
ARC
  5
307
102
{ACAD_REACTORS
330
41A
102
}
100
AcDbEntity
  8
0
100
AcDbCircle
 10
-82.46618396117
 20
261.177025495623
 30
0.0
 40
29.453240950489
100
AcDbArc
 50
5.441106184698
 51
36.879711558441
1001
ACAD
1000
TCW40_DEV_WIDTH
1002
{
1040
-3.0
1002
}
  0
ARC
  5
308
102
{ACAD_REACTORS
330
41A
102
}
100
AcDbEntity
  8
0
100
AcDbCircle
 10
-67.651795983699
 20
262.598168672074
 30
0.0
 40
14.57085079088
100
AcDbArc
 50
174.598223215051
 51
365.401776784956
1001
ACAD
1000
TCW40_DEV_WIDTH
1002
{
1040
-3.0
1002
}
  0
ARC
  5
309
102
{ACAD_REACTORS
330
41A
102
}
100
AcDbEntity
  8
0
100
AcDbCircle
 10
-77.581159155603
 20
303.380295030738
 30
0.0
 40
37.210700754925
100
AcDbArc
 50
-19.915665614925
 51
1.592194131624
1001
ACAD
1000
TCW40_DEV_WIDTH
1002
{
1040
-3.0
1002
}
  0
ARC
  5
30A
102
{ACAD_REACTORS
330
41A
102
}
100
AcDbEntity
  8
0
100
AcDbCircle
 10
-32.161054022265
 20
304.720254132846
 30
0.0
 40
37.210700754926
100
AcDbArc
 50
178.407805868376
 51
199.915665614925
1001
ACAD
1000
TCW40_DEV_WIDTH
1002
{
1040
-3.0
1002
}
  0
ARC
  5
30B
102
{ACAD_REACTORS
330
41A
102
}
100
AcDbEntity
  8
0
100
AcDbCircle
 10
-51.314969291359
 20
304.61756422978
 30
0.0
 40
18.05180154966
100
AcDbArc
 50
98.325059432647
 51
178.152598482266
1001
ACAD
1000
TCW40_DEV_WIDTH
1002
{
1040
-3.0
1002
}
  0
ARC
  5
30C
102
{ACAD_REACTORS
330
41A
102
}
100
AcDbEntity
  8
0
100
AcDbCircle
 10
-59.984110676749
 20
303.839401385305
 30
0.0
 40
19.598684282263
100
AcDbArc
 50
-0.660417629723
 51
72.002726467344
1001
ACAD
1000
TCW40_DEV_WIDTH
1002
{
1040
-3.0
1002
}
  0
LINE
  5
30D
102
{ACAD_REACTORS
330
41A
102
}
100
AcDbEntity
  8
0
100
AcDbLine
 10
-67.14636980312
 20
292.044926508421
 30
0.0
 11
-58.906618486981
 21
278.853005727424
 31
0.0
1001
ACAD
1000
TCW40_DEV_WIDTH
1002
{
1040
-3.0
1002
}
  0
LINE
  5
30E
102
{ACAD_REACTORS
330
41A
102
}
100
AcDbEntity
  8
0
100
AcDbLine
 10
-42.595843374749
 20
290.704967406314
 30
0.0
 11
-49.956641652106
 21
277.513046625316
 31
0.0
1001
ACAD
1000
TCW40_DEV_WIDTH
1002
{
1040
-3.0
1002
}
  0
ARC
  5
30F
102
{ACAD_REACTORS
330
41A
102
}
100
AcDbEntity
  8
0
100
AcDbCircle
 10
4.790194575365
 20
263.96985671059
 30
0.0
 40
28.985397528809
100
AcDbArc
 50
152.752642627227
 51
183.18945085417
1001
ACAD
1000
TCW40_DEV_WIDTH
1002
{
1040
-3.0
1002
}
  0
ARC
  5
310
102
{ACAD_REACTORS
330
41A
102
}
100
AcDbEntity
  8
0
100
AcDbCircle
 10
-53.48847508481
 20
260.904304504988
 30
0.0
 40
29.453240950489
100
AcDbArc
 50
5.441106184699
 51
36.879711558443
1001
ACAD
1000
TCW40_DEV_WIDTH
1002
{
1040
-3.0
1002
}
  0
ARC
  5
311
102
{ACAD_REACTORS
330
41A
102
}
100
AcDbEntity
  8
0
100
AcDbCircle
 10
-38.674087107339
 20
262.325447681439
 30
0.0
 40
14.570850790881
100
AcDbArc
 50
174.598223215051
 51
365.401776784956
1001
ACAD
1000
TCW40_DEV_WIDTH
1002
{
1040
-3.0
1002
}
  0
ARC
  5
312
102
{ACAD_REACTORS
330
41A
102
}
100
AcDbEntity
  8
0
100
AcDbCircle
 10
-48.603450279244
 20
303.107574040103
 30
0.0
 40
37.210700754926
100
AcDbArc
 50
-19.915665614925
 51
1.592194131624
1001
ACAD
1000
TCW40_DEV_WIDTH
1002
{
1040
-3.0
1002
}
  0
ARC
  5
313
102
{ACAD_REACTORS
330
41A
102
}
100
AcDbEntity
  8
0
100
AcDbCircle
 10
-3.183345145905
 20
304.447533142211
 30
0.0
 40
37.210700754926
100
AcDbArc
 50
178.407805868376
 51
199.915665614925
1001
ACAD
1000
TCW40_DEV_WIDTH
1002
{
1040
-3.0
1002
}
  0
ARC
  5
314
102
{ACAD_REACTORS
330
41A
102
}
100
AcDbEntity
  8
0
100
AcDbCircle
 10
-22.337260414999
 20
304.344843239145
 30
0.0
 40
18.051801549661
100
AcDbArc
 50
98.325059432652
 51
178.152598482266
1001
ACAD
1000
TCW40_DEV_WIDTH
1002
{
1040
-3.0
1002
}
  0
ARC
  5
315
102
{ACAD_REACTORS
330
41A
102
}
100
AcDbEntity
  8
0
100
AcDbCircle
 10
-31.006401800388
 20
303.56668039467
 30
0.0
 40
19.598684282262
100
AcDbArc
 50
-0.660417629723
 51
72.002726467345
1001
ACAD
1000
TCW40_DEV_WIDTH
1002
{
1040
-3.0
1002
}
  0
LINE
  5
316
102
{ACAD_REACTORS
330
41A
102
}
100
AcDbEntity
  8
0
100
AcDbLine
 10
-38.16866092676
 20
291.772205517786
 30
0.0
 11
-29.928909610622
 21
278.580284736789
 31
0.0
1001
ACAD
1000
TCW40_DEV_WIDTH
1002
{
1040
-3.0
1002
}
  0
LINE
  5
317
102
{ACAD_REACTORS
330
41A
102
}
100
AcDbEntity
  8
0
100
AcDbLine
 10
-13.618134498389
 20
290.432246415679
 30
0.0
 11
-20.978932775746
 21
277.240325634681
 31
0.0
1001
ACAD
1000
TCW40_DEV_WIDTH
1002
{
1040
-3.0
1002
}
  0
ARC
  5
318
102
{ACAD_REACTORS
330
41A
102
}
100
AcDbEntity
  8
0
100
AcDbCircle
 10
33.800946039301
 20
263.96985671059
 30
0.0
 40
28.985397528809
100
AcDbArc
 50
152.752642627227
 51
183.18945085417
1001
ACAD
1000
TCW40_DEV_WIDTH
1002
{
1040
-3.0
1002
}
  0
ARC
  5
319
102
{ACAD_REACTORS
330
41A
102
}
100
AcDbEntity
  8
0
100
AcDbCircle
 10
-24.477723620874
 20
260.904304504988
 30
0.0
 40
29.453240950489
100
AcDbArc
 50
5.441106184699
 51
36.879711558443
1001
ACAD
1000
TCW40_DEV_WIDTH
1002
{
1040
-3.0
1002
}
  0
ARC
  5
31A
102
{ACAD_REACTORS
330
41A
102
}
100
AcDbEntity
  8
0
100
AcDbCircle
 10
-9.663335643404
 20
262.325447681439
 30
0.0
 40
14.570850790881
100
AcDbArc
 50
174.598223215051
 51
365.401776784956
1001
ACAD
1000
TCW40_DEV_WIDTH
1002
{
1040
-3.0
1002
}
  0
ARC
  5
31B
102
{ACAD_REACTORS
330
41A
102
}
100
AcDbEntity
  8
0
100
AcDbCircle
 10
-19.592698815308
 20
303.107574040103
 30
0.0
 40
37.210700754925
100
AcDbArc
 50
-19.915665614925
 51
1.592194131624
1001
ACAD
1000
TCW40_DEV_WIDTH
1002
{
1040
-3.0
1002
}
  0
ARC
  5
31C
102
{ACAD_REACTORS
330
41A
102
}
100
AcDbEntity
  8
0
100
AcDbCircle
 10
25.827406318031
 20
304.447533142211
 30
0.0
 40
37.210700754926
100
AcDbArc
 50
178.407805868376
 51
199.915665614924
1001
ACAD
1000
TCW40_DEV_WIDTH
1002
{
1040
-3.0
1002
}
  0
ARC
  5
31D
102
{ACAD_REACTORS
330
41A
102
}
100
AcDbEntity
  8
0
100
AcDbCircle
 10
6.673491048936
 20
304.344843239145
 30
0.0
 40
18.05180154966
100
AcDbArc
 50
98.325059432651
 51
178.152598482266
1001
ACAD
1000
TCW40_DEV_WIDTH
1002
{
1040
-3.0
1002
}
  0
ARC
  5
31E
102
{ACAD_REACTORS
330
41A
102
}
100
AcDbEntity
  8
0
100
AcDbCircle
 10
-1.995650336453
 20
303.56668039467
 30
0.0
 40
19.598684282262
100
AcDbArc
 50
-0.660417629724
 51
72.002726467346
1001
ACAD
1000
TCW40_DEV_WIDTH
1002
{
1040
-3.0
1002
}
  0
LINE
  5
31F
102
{ACAD_REACTORS
330
41A
102
}
100
AcDbEntity
  8
0
100
AcDbLine
 10
-9.157909462824
 20
291.772205517786
 30
0.0
 11
-0.918158146687
 21
278.580284736789
 31
0.0
1001
ACAD
1000
TCW40_DEV_WIDTH
1002
{
1040
-3.0
1002
}
  0
LINE
  5
320
102
{ACAD_REACTORS
330
41A
102
}
100
AcDbEntity
  8
0
100
AcDbLine
 10
15.392616965546
 20
290.432246415679
 30
0.0
 11
8.03181868819
 21
277.240325634681
 31
0.0
1001
ACAD
1000
TCW40_DEV_WIDTH
1002
{
1040
-3.0
1002
}
  0
ARC
  5
321
102
{ACAD_REACTORS
330
41A
102
}
100
AcDbEntity
  8
0
100
AcDbCircle
 10
62.681143080544
 20
263.96985671059
 30
0.0
 40
28.985397528809
100
AcDbArc
 50
152.752642627227
 51
183.18945085417
1001
ACAD
1000
TCW40_DEV_WIDTH
1002
{
1040
-3.0
1002
}
  0
ARC
  5
322
102
{ACAD_REACTORS
330
41A
102
}
100
AcDbEntity
  8
0
100
AcDbCircle
 10
4.402473420368
 20
260.904304504988
 30
0.0
 40
29.453240950489
100
AcDbArc
 50
5.441106184699
 51
36.879711558442
1001
ACAD
1000
TCW40_DEV_WIDTH
1002
{
1040
-3.0
1002
}
  0
ARC
  5
323
102
{ACAD_REACTORS
330
41A
102
}
100
AcDbEntity
  8
0
100
AcDbCircle
 10
19.21686139784
 20
262.325447681439
 30
0.0
 40
14.570850790881
100
AcDbArc
 50
174.598223215051
 51
365.401776784956
1001
ACAD
1000
TCW40_DEV_WIDTH
1002
{
1040
-3.0
1002
}
  0
ARC
  5
324
102
{ACAD_REACTORS
330
41A
102
}
100
AcDbEntity
  8
0
100
AcDbCircle
 10
9.287498225935
 20
303.107574040103
 30
0.0
 40
37.210700754926
100
AcDbArc
 50
-19.915665614925
 51
1.592194131624
1001
ACAD
1000
TCW40_DEV_WIDTH
1002
{
1040
-3.0
1002
}
  0
ARC
  5
325
102
{ACAD_REACTORS
330
41A
102
}
100
AcDbEntity
  8
0
100
AcDbCircle
 10
54.707603359274
 20
304.447533142211
 30
0.0
 40
37.210700754926
100
AcDbArc
 50
178.407805868376
 51
199.915665614925
1001
ACAD
1000
TCW40_DEV_WIDTH
1002
{
1040
-3.0
1002
}
  0
ARC
  5
326
102
{ACAD_REACTORS
330
41A
102
}
100
AcDbEntity
  8
0
100
AcDbCircle
 10
35.55368809018
 20
304.344843239145
 30
0.0
 40
18.051801549661
100
AcDbArc
 50
98.325059432651
 51
178.152598482266
1001
ACAD
1000
TCW40_DEV_WIDTH
1002
{
1040
-3.0
1002
}
  0
ARC
  5
327
102
{ACAD_REACTORS
330
41A
102
}
100
AcDbEntity
  8
0
100
AcDbCircle
 10
26.88454670479
 20
303.56668039467
 30
0.0
 40
19.598684282262
100
AcDbArc
 50
-0.660417629723
 51
72.002726467343
1001
ACAD
1000
TCW40_DEV_WIDTH
1002
{
1040
-3.0
1002
}
  0
LINE
  5
328
102
{ACAD_REACTORS
330
41A
102
}
100
AcDbEntity
  8
0
100
AcDbLine
 10
19.722287578419
 20
291.772205517786
 30
0.0
 11
27.962038894557
 21
278.580284736789
 31
0.0
1001
ACAD
1000
TCW40_DEV_WIDTH
1002
{
1040
-3.0
1002
}
  0
LINE
  5
329
102
{ACAD_REACTORS
330
41A
102
}
100
AcDbEntity
  8
0
100
AcDbLine
 10
44.272814006789
 20
290.432246415679
 30
0.0
 11
36.912015729432
 21
277.240325634681
 31
0.0
1001
ACAD
1000
TCW40_DEV_WIDTH
1002
{
1040
-3.0
1002
}
  0
ARC
  5
32A
102
{ACAD_REACTORS
330
41A
102
}
100
AcDbEntity
  8
0
100
AcDbCircle
 10
91.561746452111
 20
263.96985671059
 30
0.0
 40
28.985397528809
100
AcDbArc
 50
152.752642627227
 51
183.18945085417
1001
ACAD
1000
TCW40_DEV_WIDTH
1002
{
1040
-3.0
1002
}
  0
ARC
  5
32B
102
{ACAD_REACTORS
330
41A
102
}
100
AcDbEntity
  8
0
100
AcDbCircle
 10
33.283076791935
 20
260.904304504988
 30
0.0
 40
29.453240950489
100
AcDbArc
 50
5.441106184699
 51
36.879711558443
1001
ACAD
1000
TCW40_DEV_WIDTH
1002
{
1040
-3.0
1002
}
  0
ARC
  5
32C
102
{ACAD_REACTORS
330
41A
102
}
100
AcDbEntity
  8
0
100
AcDbCircle
 10
48.097464769406
 20
262.325447681439
 30
0.0
 40
14.570850790881
100
AcDbArc
 50
174.59822321505
 51
365.401776784955
1001
ACAD
1000
TCW40_DEV_WIDTH
1002
{
1040
-3.0
1002
}
  0
ARC
  5
32D
102
{ACAD_REACTORS
330
41A
102
}
100
AcDbEntity
  8
0
100
AcDbCircle
 10
38.168101597502
 20
303.107574040103
 30
0.0
 40
37.210700754926
100
AcDbArc
 50
-19.915665614925
 51
1.592194131624
1001
ACAD
1000
TCW40_DEV_WIDTH
1002
{
1040
-3.0
1002
}
  0
ARC
  5
32E
102
{ACAD_REACTORS
330
41A
102
}
100
AcDbEntity
  8
0
100
AcDbCircle
 10
83.588206730841
 20
304.447533142211
 30
0.0
 40
37.210700754926
100
AcDbArc
 50
178.407805868376
 51
199.915665614925
1001
ACAD
1000
TCW40_DEV_WIDTH
1002
{
1040
-3.0
1002
}
  0
ARC
  5
32F
102
{ACAD_REACTORS
330
41A
102
}
100
AcDbEntity
  8
0
100
AcDbCircle
 10
64.434291461746
 20
304.344843239145
 30
0.0
 40
18.051801549661
100
AcDbArc
 50
98.325059432652
 51
178.152598482266
1001
ACAD
1000
TCW40_DEV_WIDTH
1002
{
1040
-3.0
1002
}
  0
ARC
  5
330
102
{ACAD_REACTORS
330
41A
102
}
100
AcDbEntity
  8
0
100
AcDbCircle
 10
55.765150076357
 20
303.56668039467
 30
0.0
 40
19.598684282262
100
AcDbArc
 50
-0.660417629723
 51
72.002726467344
1001
ACAD
1000
TCW40_DEV_WIDTH
1002
{
1040
-3.0
1002
}
  0
LINE
  5
331
102
{ACAD_REACTORS
330
41A
102
}
100
AcDbEntity
  8
0
100
AcDbLine
 10
48.602890949986
 20
291.772205517786
 30
0.0
 11
56.842642266124
 21
278.580284736789
 31
0.0
1001
ACAD
1000
TCW40_DEV_WIDTH
1002
{
1040
-3.0
1002
}
  0
LINE
  5
332
102
{ACAD_REACTORS
330
41A
102
}
100
AcDbEntity
  8
0
100
AcDbLine
 10
73.153417378356
 20
290.432246415679
 30
0.0
 11
65.792619100999
 21
277.240325634681
 31
0.0
1001
ACAD
1000
TCW40_DEV_WIDTH
1002
{
1040
-3.0
1002
}
  0
ARC
  5
333
102
{ACAD_REACTORS
330
41A
102
}
100
AcDbEntity
  8
0
100
AcDbCircle
 10
120.547819468289
 20
263.96985671059
 30
0.0
 40
28.985397528809
100
AcDbArc
 50
152.752642627227
 51
183.18945085417
1001
ACAD
1000
TCW40_DEV_WIDTH
1002
{
1040
-3.0
1002
}
  0
ARC
  5
334
102
{ACAD_REACTORS
330
41A
102
}
100
AcDbEntity
  8
0
100
AcDbCircle
 10
62.269149808114
 20
260.904304504988
 30
0.0
 40
29.453240950489
100
AcDbArc
 50
5.441106184699
 51
36.879711558443
1001
ACAD
1000
TCW40_DEV_WIDTH
1002
{
1040
-3.0
1002
}
  0
ARC
  5
335
102
{ACAD_REACTORS
330
41A
102
}
100
AcDbEntity
  8
0
100
AcDbCircle
 10
77.083537785585
 20
262.325447681439
 30
0.0
 40
14.570850790881
100
AcDbArc
 50
174.598223215051
 51
365.401776784956
1001
ACAD
1000
TCW40_DEV_WIDTH
1002
{
1040
-3.0
1002
}
  0
ARC
  5
336
102
{ACAD_REACTORS
330
41A
102
}
100
AcDbEntity
  8
0
100
AcDbCircle
 10
67.15417461368
 20
303.107574040103
 30
0.0
 40
37.210700754926
100
AcDbArc
 50
-19.915665614925
 51
1.592194131624
1001
ACAD
1000
TCW40_DEV_WIDTH
1002
{
1040
-3.0
1002
}
  0
ARC
  5
337
102
{ACAD_REACTORS
330
41A
102
}
100
AcDbEntity
  8
0
100
AcDbCircle
 10
112.574279747019
 20
304.447533142211
 30
0.0
 40
37.210700754926
100
AcDbArc
 50
178.407805868376
 51
199.915665614925
1001
ACAD
1000
TCW40_DEV_WIDTH
1002
{
1040
-3.0
1002
}
  0
ARC
  5
338
102
{ACAD_REACTORS
330
41A
102
}
100
AcDbEntity
  8
0
100
AcDbCircle
 10
93.420364477925
 20
304.344843239145
 30
0.0
 40
18.051801549661
100
AcDbArc
 50
98.325059432652
 51
178.152598482266
1001
ACAD
1000
TCW40_DEV_WIDTH
1002
{
1040
-3.0
1002
}
  0
ARC
  5
339
102
{ACAD_REACTORS
330
41A
102
}
100
AcDbEntity
  8
0
100
AcDbCircle
 10
84.751223092535
 20
303.56668039467
 30
0.0
 40
19.598684282263
100
AcDbArc
 50
-0.660417629723
 51
72.002726467344
1001
ACAD
1000
TCW40_DEV_WIDTH
1002
{
1040
-3.0
1002
}
  0
LINE
  5
33A
102
{ACAD_REACTORS
330
41A
102
}
100
AcDbEntity
  8
0
100
AcDbLine
 10
77.588963966164
 20
291.772205517786
 30
0.0
 11
85.828715282301
 21
278.580284736789
 31
0.0
1001
ACAD
1000
TCW40_DEV_WIDTH
1002
{
1040
-3.0
1002
}
  0
LINE
  5
33B
102
{ACAD_REACTORS
330
41A
102
}
100
AcDbEntity
  8
0
100
AcDbLine
 10
102.139490394534
 20
290.432246415679
 30
0.0
 11
94.778692117177
 21
277.240325634681
 31
0.0
1001
ACAD
1000
TCW40_DEV_WIDTH
1002
{
1040
-3.0
1002
}
  0
ARC
  5
33C
102
{ACAD_REACTORS
330
41A
102
}
100
AcDbEntity
  8
0
100
AcDbCircle
 10
149.685081633858
 20
263.96985671059
 30
0.0
 40
28.985397528809
100
AcDbArc
 50
152.752642627227
 51
183.18945085417
1001
ACAD
1000
TCW40_DEV_WIDTH
1002
{
1040
-3.0
1002
}
  0
ARC
  5
33D
102
{ACAD_REACTORS
330
41A
102
}
100
AcDbEntity
  8
0
100
AcDbCircle
 10
91.406411973683
 20
260.904304504988
 30
0.0
 40
29.453240950489
100
AcDbArc
 50
5.441106184699
 51
36.879711558443
1001
ACAD
1000
TCW40_DEV_WIDTH
1002
{
1040
-3.0
1002
}
  0
ARC
  5
33E
102
{ACAD_REACTORS
330
41A
102
}
100
AcDbEntity
  8
0
100
AcDbCircle
 10
106.220799951154
 20
262.325447681439
 30
0.0
 40
14.570850790881
100
AcDbArc
 50
174.598223215051
 51
365.401776784956
1001
ACAD
1000
TCW40_DEV_WIDTH
1002
{
1040
-3.0
1002
}
  0
ARC
  5
33F
102
{ACAD_REACTORS
330
41A
102
}
100
AcDbEntity
  8
0
100
AcDbCircle
 10
96.291436779249
 20
303.107574040103
 30
0.0
 40
37.210700754926
100
AcDbArc
 50
-19.915665614925
 51
1.592194131624
1001
ACAD
1000
TCW40_DEV_WIDTH
1002
{
1040
-3.0
1002
}
  0
ARC
  5
340
102
{ACAD_REACTORS
330
41A
102
}
100
AcDbEntity
  8
0
100
AcDbCircle
 10
141.711541912588
 20
304.447533142211
 30
0.0
 40
37.210700754926
100
AcDbArc
 50
178.407805868376
 51
199.915665614925
1001
ACAD
1000
TCW40_DEV_WIDTH
1002
{
1040
-3.0
1002
}
  0
ARC
  5
341
102
{ACAD_REACTORS
330
41A
102
}
100
AcDbEntity
  8
0
100
AcDbCircle
 10
122.557626643494
 20
304.344843239145
 30
0.0
 40
18.05180154966
100
AcDbArc
 50
98.325059432652
 51
178.152598482266
1001
ACAD
1000
TCW40_DEV_WIDTH
1002
{
1040
-3.0
1002
}
  0
ARC
  5
342
102
{ACAD_REACTORS
330
41A
102
}
100
AcDbEntity
  8
0
100
AcDbCircle
 10
113.888485258104
 20
303.56668039467
 30
0.0
 40
19.598684282262
100
AcDbArc
 50
-0.660417629723
 51
72.002726467344
1001
ACAD
1000
TCW40_DEV_WIDTH
1002
{
1040
-3.0
1002
}
  0
LINE
  5
343
102
{ACAD_REACTORS
330
41A
102
}
100
AcDbEntity
  8
0
100
AcDbLine
 10
106.726226131733
 20
291.772205517786
 30
0.0
 11
114.965977447871
 21
278.580284736789
 31
0.0
1001
ACAD
1000
TCW40_DEV_WIDTH
1002
{
1040
-3.0
1002
}
  0
LINE
  5
344
102
{ACAD_REACTORS
330
41A
102
}
100
AcDbEntity
  8
0
100
AcDbLine
 10
131.276752560103
 20
290.432246415679
 30
0.0
 11
123.915954282747
 21
277.240325634681
 31
0.0
1001
ACAD
1000
TCW40_DEV_WIDTH
1002
{
1040
-3.0
1002
}
  0
ARC
  5
345
102
{ACAD_REACTORS
330
41A
102
}
100
AcDbEntity
  8
0
100
AcDbCircle
 10
178.554763042136
 20
263.96985671059
 30
0.0
 40
28.985397528809
100
AcDbArc
 50
152.752642627227
 51
183.18945085417
1001
ACAD
1000
TCW40_DEV_WIDTH
1002
{
1040
-3.0
1002
}
  0
ARC
  5
346
102
{ACAD_REACTORS
330
41A
102
}
100
AcDbEntity
  8
0
100
AcDbCircle
 10
120.27609338196
 20
260.904304504988
 30
0.0
 40
29.453240950489
100
AcDbArc
 50
5.441106184699
 51
36.879711558443
1001
ACAD
1000
TCW40_DEV_WIDTH
1002
{
1040
-3.0
1002
}
  0
ARC
  5
347
102
{ACAD_REACTORS
330
41A
102
}
100
AcDbEntity
  8
0
100
AcDbCircle
 10
135.090481359431
 20
262.325447681439
 30
0.0
 40
14.570850790881
100
AcDbArc
 50
174.598223215051
 51
365.401776784956
1001
ACAD
1000
TCW40_DEV_WIDTH
1002
{
1040
-3.0
1002
}
  0
ARC
  5
348
102
{ACAD_REACTORS
330
41A
102
}
100
AcDbEntity
  8
0
100
AcDbCircle
 10
125.161118187526
 20
303.107574040103
 30
0.0
 40
37.210700754926
100
AcDbArc
 50
-19.915665614925
 51
1.592194131624
1001
ACAD
1000
TCW40_DEV_WIDTH
1002
{
1040
-3.0
1002
}
  0
ARC
  5
349
102
{ACAD_REACTORS
330
41A
102
}
100
AcDbEntity
  8
0
100
AcDbCircle
 10
170.581223320866
 20
304.447533142211
 30
0.0
 40
37.210700754926
100
AcDbArc
 50
178.407805868376
 51
199.915665614925
1001
ACAD
1000
TCW40_DEV_WIDTH
1002
{
1040
-3.0
1002
}
  0
ARC
  5
34A
102
{ACAD_REACTORS
330
41A
102
}
100
AcDbEntity
  8
0
100
AcDbCircle
 10
151.427308051771
 20
304.344843239145
 30
0.0
 40
18.05180154966
100
AcDbArc
 50
98.32505943265
 51
178.152598482266
1001
ACAD
1000
TCW40_DEV_WIDTH
1002
{
1040
-3.0
1002
}
  0
ARC
  5
34B
102
{ACAD_REACTORS
330
41A
102
}
100
AcDbEntity
  8
0
100
AcDbCircle
 10
142.758166666382
 20
303.56668039467
 30
0.0
 40
19.598684282262
100
AcDbArc
 50
-0.660417629723
 51
72.002726467345
1001
ACAD
1000
TCW40_DEV_WIDTH
1002
{
1040
-3.0
1002
}
  0
LINE
  5
34C
102
{ACAD_REACTORS
330
41A
102
}
100
AcDbEntity
  8
0
100
AcDbLine
 10
135.59590754001
 20
291.772205517786
 30
0.0
 11
143.835658856148
 21
278.580284736789
 31
0.0
1001
ACAD
1000
TCW40_DEV_WIDTH
1002
{
1040
-3.0
1002
}
  0
LINE
  5
34D
102
{ACAD_REACTORS
330
41A
102
}
100
AcDbEntity
  8
0
100
AcDbLine
 10
160.146433968381
 20
290.432246415679
 30
0.0
 11
152.785635691023
 21
277.240325634681
 31
0.0
1001
ACAD
1000
TCW40_DEV_WIDTH
1002
{
1040
-3.0
1002
}
  0
ARC
  5
34E
102
{ACAD_REACTORS
330
41A
102
}
100
AcDbEntity
  8
0
100
AcDbCircle
 10
207.434960083379
 20
263.96985671059
 30
0.0
 40
28.985397528809
100
AcDbArc
 50
152.752642627227
 51
183.18945085417
1001
ACAD
1000
TCW40_DEV_WIDTH
1002
{
1040
-3.0
1002
}
  0
ARC
  5
34F
102
{ACAD_REACTORS
330
41A
102
}
100
AcDbEntity
  8
0
100
AcDbCircle
 10
149.156290423204
 20
260.904304504988
 30
0.0
 40
29.453240950489
100
AcDbArc
 50
5.441106184699
 51
36.879711558443
1001
ACAD
1000
TCW40_DEV_WIDTH
1002
{
1040
-3.0
1002
}
  0
ARC
  5
350
102
{ACAD_REACTORS
330
41A
102
}
100
AcDbEntity
  8
0
100
AcDbCircle
 10
163.970678400675
 20
262.325447681439
 30
0.0
 40
14.570850790881
100
AcDbArc
 50
174.598223215051
 51
365.401776784955
1001
ACAD
1000
TCW40_DEV_WIDTH
1002
{
1040
-3.0
1002
}
  0
ARC
  5
351
102
{ACAD_REACTORS
330
41A
102
}
100
AcDbEntity
  8
0
100
AcDbCircle
 10
154.04131522877
 20
303.107574040103
 30
0.0
 40
37.210700754926
100
AcDbArc
 50
-19.915665614925
 51
1.592194131624
1001
ACAD
1000
TCW40_DEV_WIDTH
1002
{
1040
-3.0
1002
}
  0
ARC
  5
352
102
{ACAD_REACTORS
330
41A
102
}
100
AcDbEntity
  8
0
100
AcDbCircle
 10
199.46142036211
 20
304.447533142211
 30
0.0
 40
37.210700754926
100
AcDbArc
 50
178.407805868376
 51
199.915665614925
1001
ACAD
1000
TCW40_DEV_WIDTH
1002
{
1040
-3.0
1002
}
  0
ARC
  5
353
102
{ACAD_REACTORS
330
41A
102
}
100
AcDbEntity
  8
0
100
AcDbCircle
 10
180.307505093015
 20
304.344843239145
 30
0.0
 40
18.05180154966
100
AcDbArc
 50
98.32505943265
 51
178.152598482266
1001
ACAD
1000
TCW40_DEV_WIDTH
1002
{
1040
-3.0
1002
}
  0
ARC
  5
354
102
{ACAD_REACTORS
330
41A
102
}
100
AcDbEntity
  8
0
100
AcDbCircle
 10
171.638363707625
 20
303.56668039467
 30
0.0
 40
19.598684282262
100
AcDbArc
 50
-0.660417629723
 51
72.002726467345
1001
ACAD
1000
TCW40_DEV_WIDTH
1002
{
1040
-3.0
1002
}
  0
LINE
  5
355
102
{ACAD_REACTORS
330
41A
102
}
100
AcDbEntity
  8
0
100
AcDbLine
 10
164.476104581254
 20
291.772205517786
 30
0.0
 11
172.715855897392
 21
278.580284736789
 31
0.0
1001
ACAD
1000
TCW40_DEV_WIDTH
1002
{
1040
-3.0
1002
}
  0
LINE
  5
356
102
{ACAD_REACTORS
330
41A
102
}
100
AcDbEntity
  8
0
100
AcDbLine
 10
189.026631009625
 20
290.432246415679
 30
0.0
 11
181.665832732267
 21
277.240325634681
 31
0.0
1001
ACAD
1000
TCW40_DEV_WIDTH
1002
{
1040
-3.0
1002
}
  0
ARC
  5
357
102
{ACAD_REACTORS
330
41A
102
}
100
AcDbEntity
  8
0
100
AcDbCircle
 10
236.566553206596
 20
263.96985671059
 30
0.0
 40
28.985397528809
100
AcDbArc
 50
152.752642627227
 51
183.18945085417
1001
ACAD
1000
TCW40_DEV_WIDTH
1002
{
1040
-3.0
1002
}
  0
ARC
  5
358
102
{ACAD_REACTORS
330
41A
102
}
100
AcDbEntity
  8
0
100
AcDbCircle
 10
178.28788354642
 20
260.904304504988
 30
0.0
 40
29.453240950489
100
AcDbArc
 50
5.441106184699
 51
36.879711558442
1001
ACAD
1000
TCW40_DEV_WIDTH
1002
{
1040
-3.0
1002
}
  0
ARC
  5
359
102
{ACAD_REACTORS
330
41A
102
}
100
AcDbEntity
  8
0
100
AcDbCircle
 10
193.102271523891
 20
262.325447681439
 30
0.0
 40
14.570850790881
100
AcDbArc
 50
174.59822321505
 51
365.401776784955
1001
ACAD
1000
TCW40_DEV_WIDTH
1002
{
1040
-3.0
1002
}
  0
ARC
  5
35A
102
{ACAD_REACTORS
330
41A
102
}
100
AcDbEntity
  8
0
100
AcDbCircle
 10
183.172908351986
 20
303.107574040103
 30
0.0
 40
37.210700754926
100
AcDbArc
 50
-19.915665614925
 51
1.592194131624
1001
ACAD
1000
TCW40_DEV_WIDTH
1002
{
1040
-3.0
1002
}
  0
ARC
  5
35B
102
{ACAD_REACTORS
330
41A
102
}
100
AcDbEntity
  8
0
100
AcDbCircle
 10
228.593013485326
 20
304.447533142211
 30
0.0
 40
37.210700754926
100
AcDbArc
 50
178.407805868376
 51
199.915665614925
1001
ACAD
1000
TCW40_DEV_WIDTH
1002
{
1040
-3.0
1002
}
  0
ARC
  5
35C
102
{ACAD_REACTORS
330
41A
102
}
100
AcDbEntity
  8
0
100
AcDbCircle
 10
209.439098216231
 20
304.344843239145
 30
0.0
 40
18.051801549661
100
AcDbArc
 50
98.325059432651
 51
178.152598482266
1001
ACAD
1000
TCW40_DEV_WIDTH
1002
{
1040
-3.0
1002
}
  0
ARC
  5
35D
102
{ACAD_REACTORS
330
41A
102
}
100
AcDbEntity
  8
0
100
AcDbCircle
 10
200.769956830842
 20
303.56668039467
 30
0.0
 40
19.598684282262
100
AcDbArc
 50
-0.660417629723
 51
72.002726467344
1001
ACAD
1000
TCW40_DEV_WIDTH
1002
{
1040
-3.0
1002
}
  0
LINE
  5
35E
102
{ACAD_REACTORS
330
41A
102
}
100
AcDbEntity
  8
0
100
AcDbLine
 10
193.60769770447
 20
291.772205517786
 30
0.0
 11
201.847449020608
 21
278.580284736789
 31
0.0
1001
ACAD
1000
TCW40_DEV_WIDTH
1002
{
1040
-3.0
1002
}
  0
LINE
  5
35F
102
{ACAD_REACTORS
330
41A
102
}
100
AcDbEntity
  8
0
100
AcDbLine
 10
218.158224132841
 20
290.432246415679
 30
0.0
 11
210.797425855484
 21
277.240325634681
 31
0.0
1001
ACAD
1000
TCW40_DEV_WIDTH
1002
{
1040
-3.0
1002
}
  0
ARC
  5
360
102
{ACAD_REACTORS
330
41A
102
}
100
AcDbEntity
  8
0
100
AcDbCircle
 10
265.560038079529
 20
263.96985671059
 30
0.0
 40
28.985397528809
100
AcDbArc
 50
152.752642627227
 51
183.18945085417
1001
ACAD
1000
TCW40_DEV_WIDTH
1002
{
1040
-3.0
1002
}
  0
ARC
  5
361
102
{ACAD_REACTORS
330
41A
102
}
100
AcDbEntity
  8
0
100
AcDbCircle
 10
207.281368419354
 20
260.904304504988
 30
0.0
 40
29.453240950489
100
AcDbArc
 50
5.441106184699
 51
36.879711558442
1001
ACAD
1000
TCW40_DEV_WIDTH
1002
{
1040
-3.0
1002
}
  0
ARC
  5
362
102
{ACAD_REACTORS
330
41A
102
}
100
AcDbEntity
  8
0
100
AcDbCircle
 10
222.095756396824
 20
262.325447681439
 30
0.0
 40
14.570850790881
100
AcDbArc
 50
174.598223215051
 51
365.401776784956
1001
ACAD
1000
TCW40_DEV_WIDTH
1002
{
1040
-3.0
1002
}
  0
ARC
  5
363
102
{ACAD_REACTORS
330
41A
102
}
100
AcDbEntity
  8
0
100
AcDbCircle
 10
212.16639322492
 20
303.107574040103
 30
0.0
 40
37.210700754926
100
AcDbArc
 50
-19.915665614925
 51
1.592194131624
1001
ACAD
1000
TCW40_DEV_WIDTH
1002
{
1040
-3.0
1002
}
  0
ARC
  5
364
102
{ACAD_REACTORS
330
41A
102
}
100
AcDbEntity
  8
0
100
AcDbCircle
 10
257.586498358259
 20
304.447533142211
 30
0.0
 40
37.210700754926
100
AcDbArc
 50
178.407805868376
 51
199.915665614925
1001
ACAD
1000
TCW40_DEV_WIDTH
1002
{
1040
-3.0
1002
}
  0
ARC
  5
365
102
{ACAD_REACTORS
330
41A
102
}
100
AcDbEntity
  8
0
100
AcDbCircle
 10
238.432583089165
 20
304.344843239145
 30
0.0
 40
18.051801549661
100
AcDbArc
 50
98.325059432652
 51
178.152598482266
1001
ACAD
1000
TCW40_DEV_WIDTH
1002
{
1040
-3.0
1002
}
  0
ARC
  5
366
102
{ACAD_REACTORS
330
41A
102
}
100
AcDbEntity
  8
0
100
AcDbCircle
 10
229.763441703775
 20
303.56668039467
 30
0.0
 40
19.598684282262
100
AcDbArc
 50
-0.660417629723
 51
72.002726467344
1001
ACAD
1000
TCW40_DEV_WIDTH
1002
{
1040
-3.0
1002
}
  0
LINE
  5
367
102
{ACAD_REACTORS
330
41A
102
}
100
AcDbEntity
  8
0
100
AcDbLine
 10
222.601182577404
 20
291.772205517786
 30
0.0
 11
230.840933893541
 21
278.580284736789
 31
0.0
1001
ACAD
1000
TCW40_DEV_WIDTH
1002
{
1040
-3.0
1002
}
  0
LINE
  5
368
102
{ACAD_REACTORS
330
41A
102
}
100
AcDbEntity
  8
0
100
AcDbLine
 10
247.151709005774
 20
290.432246415679
 30
0.0
 11
239.790910728417
 21
277.240325634681
 31
0.0
1001
ACAD
1000
TCW40_DEV_WIDTH
1002
{
1040
-3.0
1002
}
  0
ARC
  5
369
102
{ACAD_REACTORS
330
41A
102
}
100
AcDbEntity
  8
0
100
AcDbCircle
 10
294.435246559323
 20
263.96985671059
 30
0.0
 40
28.985397528809
100
AcDbArc
 50
152.752642627227
 51
183.18945085417
1001
ACAD
1000
TCW40_DEV_WIDTH
1002
{
1040
-3.0
1002
}
  0
ARC
  5
36A
102
{ACAD_REACTORS
330
41A
102
}
100
AcDbEntity
  8
0
100
AcDbCircle
 10
236.156576899148
 20
260.904304504988
 30
0.0
 40
29.453240950489
100
AcDbArc
 50
5.441106184699
 51
36.879711558443
1001
ACAD
1000
TCW40_DEV_WIDTH
1002
{
1040
-3.0
1002
}
  0
ARC
  5
36B
102
{ACAD_REACTORS
330
41A
102
}
100
AcDbEntity
  8
0
100
AcDbCircle
 10
250.970964876619
 20
262.325447681439
 30
0.0
 40
14.570850790881
100
AcDbArc
 50
174.598223215051
 51
365.401776784956
1001
ACAD
1000
TCW40_DEV_WIDTH
1002
{
1040
-3.0
1002
}
  0
ARC
  5
36C
102
{ACAD_REACTORS
330
41A
102
}
100
AcDbEntity
  8
0
100
AcDbCircle
 10
241.041601704714
 20
303.107574040103
 30
0.0
 40
37.210700754926
100
AcDbArc
 50
-19.915665614925
 51
1.592194131624
1001
ACAD
1000
TCW40_DEV_WIDTH
1002
{
1040
-3.0
1002
}
  0
ARC
  5
36D
102
{ACAD_REACTORS
330
41A
102
}
100
AcDbEntity
  8
0
100
AcDbCircle
 10
286.461706838053
 20
304.447533142211
 30
0.0
 40
37.210700754926
100
AcDbArc
 50
178.407805868376
 51
199.915665614925
1001
ACAD
1000
TCW40_DEV_WIDTH
1002
{
1040
-3.0
1002
}
  0
ARC
  5
36E
102
{ACAD_REACTORS
330
41A
102
}
100
AcDbEntity
  8
0
100
AcDbCircle
 10
267.307791568958
 20
304.344843239145
 30
0.0
 40
18.051801549661
100
AcDbArc
 50
98.325059432652
 51
178.152598482266
1001
ACAD
1000
TCW40_DEV_WIDTH
1002
{
1040
-3.0
1002
}
  0
ARC
  5
36F
102
{ACAD_REACTORS
330
41A
102
}
100
AcDbEntity
  8
0
100
AcDbCircle
 10
258.638650183569
 20
303.56668039467
 30
0.0
 40
19.598684282262
100
AcDbArc
 50
-0.660417629723
 51
72.002726467342
1001
ACAD
1000
TCW40_DEV_WIDTH
1002
{
1040
-3.0
1002
}
  0
LINE
  5
370
102
{ACAD_REACTORS
330
41A
102
}
100
AcDbEntity
  8
0
100
AcDbLine
 10
251.476391057198
 20
291.772205517786
 30
0.0
 11
259.716142373336
 21
278.580284736789
 31
0.0
1001
ACAD
1000
TCW40_DEV_WIDTH
1002
{
1040
-3.0
1002
}
  0
LINE
  5
371
102
{ACAD_REACTORS
330
41A
102
}
100
AcDbEntity
  8
0
100
AcDbLine
 10
276.026917485568
 20
290.432246415679
 30
0.0
 11
268.666119208211
 21
277.240325634681
 31
0.0
1001
ACAD
1000
TCW40_DEV_WIDTH
1002
{
1040
-3.0
1002
}
  0
ARC
  5
372
102
{ACAD_REACTORS
330
41A
102
}
100
AcDbEntity
  8
0
100
AcDbCircle
 10
323.57008053404
 20
263.96985671059
 30
0.0
 40
28.985397528809
100
AcDbArc
 50
152.752642627227
 51
183.18945085417
1001
ACAD
1000
TCW40_DEV_WIDTH
1002
{
1040
-3.0
1002
}
  0
ARC
  5
373
102
{ACAD_REACTORS
330
41A
102
}
100
AcDbEntity
  8
0
100
AcDbCircle
 10
265.291410873864
 20
260.904304504988
 30
0.0
 40
29.453240950489
100
AcDbArc
 50
5.441106184699
 51
36.879711558443
1001
ACAD
1000
TCW40_DEV_WIDTH
1002
{
1040
-3.0
1002
}
  0
ARC
  5
374
102
{ACAD_REACTORS
330
41A
102
}
100
AcDbEntity
  8
0
100
AcDbCircle
 10
280.105798851336
 20
262.325447681439
 30
0.0
 40
14.570850790881
100
AcDbArc
 50
174.598223215051
 51
365.401776784956
1001
ACAD
1000
TCW40_DEV_WIDTH
1002
{
1040
-3.0
1002
}
  0
ARC
  5
375
102
{ACAD_REACTORS
330
41A
102
}
100
AcDbEntity
  8
0
100
AcDbCircle
 10
270.17643567943
 20
303.107574040103
 30
0.0
 40
37.210700754926
100
AcDbArc
 50
-19.915665614925
 51
1.592194131624
1001
ACAD
1000
TCW40_DEV_WIDTH
1002
{
1040
-3.0
1002
}
  0
ARC
  5
376
102
{ACAD_REACTORS
330
41A
102
}
100
AcDbEntity
  8
0
100
AcDbCircle
 10
315.59654081277
 20
304.447533142211
 30
0.0
 40
37.210700754926
100
AcDbArc
 50
178.407805868376
 51
199.915665614925
1001
ACAD
1000
TCW40_DEV_WIDTH
1002
{
1040
-3.0
1002
}
  0
ARC
  5
377
102
{ACAD_REACTORS
330
41A
102
}
100
AcDbEntity
  8
0
100
AcDbCircle
 10
296.442625543675
 20
304.344843239145
 30
0.0
 40
18.051801549661
100
AcDbArc
 50
98.325059432652
 51
178.152598482266
1001
ACAD
1000
TCW40_DEV_WIDTH
1002
{
1040
-3.0
1002
}
  0
ARC
  5
378
102
{ACAD_REACTORS
330
41A
102
}
100
AcDbEntity
  8
0
100
AcDbCircle
 10
287.773484158285
 20
303.56668039467
 30
0.0
 40
19.598684282262
100
AcDbArc
 50
-0.660417629724
 51
72.002726467343
1001
ACAD
1000
TCW40_DEV_WIDTH
1002
{
1040
-3.0
1002
}
  0
LINE
  5
379
102
{ACAD_REACTORS
330
41A
102
}
100
AcDbEntity
  8
0
100
AcDbLine
 10
280.611225031914
 20
291.772205517786
 30
0.0
 11
288.850976348052
 21
278.580284736789
 31
0.0
1001
ACAD
1000
TCW40_DEV_WIDTH
1002
{
1040
-3.0
1002
}
  0
LINE
  5
37A
102
{ACAD_REACTORS
330
41A
102
}
100
AcDbEntity
  8
0
100
AcDbLine
 10
305.161751460285
 20
290.432246415679
 30
0.0
 11
297.800953182928
 21
277.240325634681
 31
0.0
1001
ACAD
1000
TCW40_DEV_WIDTH
1002
{
1040
-3.0
1002
}
  0
ARC
  5
37B
102
{ACAD_REACTORS
330
41A
102
}
100
AcDbEntity
  8
0
100
AcDbCircle
 10
352.690614618675
 20
263.96985671059
 30
0.0
 40
28.985397528809
100
AcDbArc
 50
152.752642627227
 51
183.18945085417
1001
ACAD
1000
TCW40_DEV_WIDTH
1002
{
1040
-3.0
1002
}
  0
ARC
  5
37C
102
{ACAD_REACTORS
330
41A
102
}
100
AcDbEntity
  8
0
100
AcDbCircle
 10
294.4119449585
 20
260.904304504988
 30
0.0
 40
29.453240950489
100
AcDbArc
 50
5.441106184699
 51
36.879711558443
1001
ACAD
1000
TCW40_DEV_WIDTH
1002
{
1040
-3.0
1002
}
  0
ARC
  5
37D
102
{ACAD_REACTORS
330
41A
102
}
100
AcDbEntity
  8
0
100
AcDbCircle
 10
309.226332935971
 20
262.325447681439
 30
0.0
 40
14.570850790881
100
AcDbArc
 50
174.598223215051
 51
365.401776784955
1001
ACAD
1000
TCW40_DEV_WIDTH
1002
{
1040
-3.0
1002
}
  0
ARC
  5
37E
102
{ACAD_REACTORS
330
41A
102
}
100
AcDbEntity
  8
0
100
AcDbCircle
 10
299.296969764066
 20
303.107574040103
 30
0.0
 40
37.210700754926
100
AcDbArc
 50
-19.915665614925
 51
1.592194131624
1001
ACAD
1000
TCW40_DEV_WIDTH
1002
{
1040
-3.0
1002
}
  0
ARC
  5
37F
102
{ACAD_REACTORS
330
41A
102
}
100
AcDbEntity
  8
0
100
AcDbCircle
 10
344.717074897405
 20
304.447533142211
 30
0.0
 40
37.210700754926
100
AcDbArc
 50
178.407805868376
 51
199.915665614925
1001
ACAD
1000
TCW40_DEV_WIDTH
1002
{
1040
-3.0
1002
}
  0
ARC
  5
380
102
{ACAD_REACTORS
330
41A
102
}
100
AcDbEntity
  8
0
100
AcDbCircle
 10
325.563159628311
 20
304.344843239145
 30
0.0
 40
18.051801549661
100
AcDbArc
 50
98.325059432652
 51
178.152598482266
1001
ACAD
1000
TCW40_DEV_WIDTH
1002
{
1040
-3.0
1002
}
  0
ARC
  5
381
102
{ACAD_REACTORS
330
41A
102
}
100
AcDbEntity
  8
0
100
AcDbCircle
 10
316.894018242921
 20
303.56668039467
 30
0.0
 40
19.598684282262
100
AcDbArc
 50
-0.660417629723
 51
72.002726467343
1001
ACAD
1000
TCW40_DEV_WIDTH
1002
{
1040
-3.0
1002
}
  0
LINE
  5
382
102
{ACAD_REACTORS
330
41A
102
}
100
AcDbEntity
  8
0
100
AcDbLine
 10
309.73175911655
 20
291.772205517786
 30
0.0
 11
317.971510432688
 21
278.580284736789
 31
0.0
1001
ACAD
1000
TCW40_DEV_WIDTH
1002
{
1040
-3.0
1002
}
  0
LINE
  5
383
102
{ACAD_REACTORS
330
41A
102
}
100
AcDbEntity
  8
0
100
AcDbLine
 10
334.282285544921
 20
290.432246415679
 30
0.0
 11
326.921487267564
 21
277.240325634681
 31
0.0
1001
ACAD
1000
TCW40_DEV_WIDTH
1002
{
1040
-3.0
1002
}
  0
ARC
  5
384
102
{ACAD_REACTORS
330
41A
102
}
100
AcDbEntity
  8
0
100
AcDbCircle
 10
381.816680670375
 20
263.96985671059
 30
0.0
 40
28.985397528809
100
AcDbArc
 50
152.752642627227
 51
183.18945085417
1001
ACAD
1000
TCW40_DEV_WIDTH
1002
{
1040
-3.0
1002
}
  0
ARC
  5
385
102
{ACAD_REACTORS
330
41A
102
}
100
AcDbEntity
  8
0
100
AcDbCircle
 10
323.538011010199
 20
260.904304504988
 30
0.0
 40
29.453240950489
100
AcDbArc
 50
5.441106184699
 51
36.879711558442
1001
ACAD
1000
TCW40_DEV_WIDTH
1002
{
1040
-3.0
1002
}
  0
ARC
  5
386
102
{ACAD_REACTORS
330
41A
102
}
100
AcDbEntity
  8
0
100
AcDbCircle
 10
338.35239898767
 20
262.325447681439
 30
0.0
 40
14.570850790881
100
AcDbArc
 50
174.598223215051
 51
365.401776784956
1001
ACAD
1000
TCW40_DEV_WIDTH
1002
{
1040
-3.0
1002
}
  0
ARC
  5
387
102
{ACAD_REACTORS
330
41A
102
}
100
AcDbEntity
  8
0
100
AcDbCircle
 10
328.423035815765
 20
303.107574040103
 30
0.0
 40
37.210700754926
100
AcDbArc
 50
-19.915665614925
 51
1.592194131624
1001
ACAD
1000
TCW40_DEV_WIDTH
1002
{
1040
-3.0
1002
}
  0
ARC
  5
388
102
{ACAD_REACTORS
330
41A
102
}
100
AcDbEntity
  8
0
100
AcDbCircle
 10
373.843140949105
 20
304.447533142211
 30
0.0
 40
37.210700754926
100
AcDbArc
 50
178.407805868376
 51
199.915665614925
1001
ACAD
1000
TCW40_DEV_WIDTH
1002
{
1040
-3.0
1002
}
  0
ARC
  5
389
102
{ACAD_REACTORS
330
41A
102
}
100
AcDbEntity
  8
0
100
AcDbCircle
 10
354.68922568001
 20
304.344843239145
 30
0.0
 40
18.051801549661
100
AcDbArc
 50
98.325059432651
 51
178.152598482266
1001
ACAD
1000
TCW40_DEV_WIDTH
1002
{
1040
-3.0
1002
}
  0
ARC
  5
38A
102
{ACAD_REACTORS
330
41A
102
}
100
AcDbEntity
  8
0
100
AcDbCircle
 10
346.02008429462
 20
303.56668039467
 30
0.0
 40
19.598684282262
100
AcDbArc
 50
-0.660417629723
 51
72.002726467344
1001
ACAD
1000
TCW40_DEV_WIDTH
1002
{
1040
-3.0
1002
}
  0
LINE
  5
38B
102
{ACAD_REACTORS
330
41A
102
}
100
AcDbEntity
  8
0
100
AcDbLine
 10
338.85782516825
 20
291.772205517786
 30
0.0
 11
347.097576484387
 21
278.580284736789
 31
0.0
1001
ACAD
1000
TCW40_DEV_WIDTH
1002
{
1040
-3.0
1002
}
  0
LINE
  5
38C
102
{ACAD_REACTORS
330
41A
102
}
100
AcDbEntity
  8
0
100
AcDbLine
 10
363.40835159662
 20
290.432246415679
 30
0.0
 11
356.047553319263
 21
277.240325634681
 31
0.0
1001
ACAD
1000
TCW40_DEV_WIDTH
1002
{
1040
-3.0
1002
}
  0
ARC
  5
38D
102
{ACAD_REACTORS
330
41A
102
}
100
AcDbEntity
  8
0
100
AcDbCircle
 10
410.821092402144
 20
263.96985671059
 30
0.0
 40
28.985397528809
100
AcDbArc
 50
152.752642627227
 51
183.18945085417
1001
ACAD
1000
TCW40_DEV_WIDTH
1002
{
1040
-3.0
1002
}
  0
ARC
  5
38E
102
{ACAD_REACTORS
330
41A
102
}
100
AcDbEntity
  8
0
100
AcDbCircle
 10
352.542422741969
 20
260.904304504988
 30
0.0
 40
29.453240950489
100
AcDbArc
 50
5.441106184699
 51
36.879711558443
1001
ACAD
1000
TCW40_DEV_WIDTH
1002
{
1040
-3.0
1002
}
  0
ARC
  5
38F
102
{ACAD_REACTORS
330
41A
102
}
100
AcDbEntity
  8
0
100
AcDbCircle
 10
367.35681071944
 20
262.325447681439
 30
0.0
 40
14.570850790881
100
AcDbArc
 50
174.598223215051
 51
365.401776784956
1001
ACAD
1000
TCW40_DEV_WIDTH
1002
{
1040
-3.0
1002
}
  0
ARC
  5
390
102
{ACAD_REACTORS
330
41A
102
}
100
AcDbEntity
  8
0
100
AcDbCircle
 10
357.427447547535
 20
303.107574040103
 30
0.0
 40
37.210700754926
100
AcDbArc
 50
-19.915665614925
 51
1.592194131624
1001
ACAD
1000
TCW40_DEV_WIDTH
1002
{
1040
-3.0
1002
}
  0
ARC
  5
391
102
{ACAD_REACTORS
330
41A
102
}
100
AcDbEntity
  8
0
100
AcDbCircle
 10
402.847552680874
 20
304.447533142211
 30
0.0
 40
37.210700754926
100
AcDbArc
 50
178.407805868376
 51
199.915665614925
1001
ACAD
1000
TCW40_DEV_WIDTH
1002
{
1040
-3.0
1002
}
  0
ARC
  5
392
102
{ACAD_REACTORS
330
41A
102
}
100
AcDbEntity
  8
0
100
AcDbCircle
 10
383.693637411779
 20
304.344843239145
 30
0.0
 40
18.051801549661
100
AcDbArc
 50
98.325059432652
 51
178.152598482266
1001
ACAD
1000
TCW40_DEV_WIDTH
1002
{
1040
-3.0
1002
}
  0
ARC
  5
393
102
{ACAD_REACTORS
330
41A
102
}
100
AcDbEntity
  8
0
100
AcDbCircle
 10
375.02449602639
 20
303.56668039467
 30
0.0
 40
19.598684282262
100
AcDbArc
 50
-0.660417629723
 51
72.002726467343
1001
ACAD
1000
TCW40_DEV_WIDTH
1002
{
1040
-3.0
1002
}
  0
LINE
  5
394
102
{ACAD_REACTORS
330
41A
102
}
100
AcDbEntity
  8
0
100
AcDbLine
 10
367.862236900019
 20
291.772205517786
 30
0.0
 11
376.101988216157
 21
278.580284736789
 31
0.0
1001
ACAD
1000
TCW40_DEV_WIDTH
1002
{
1040
-3.0
1002
}
  0
LINE
  5
395
102
{ACAD_REACTORS
330
41A
102
}
100
AcDbEntity
  8
0
100
AcDbLine
 10
392.412763328389
 20
290.432246415679
 30
0.0
 11
385.051965051033
 21
277.240325634681
 31
0.0
1001
ACAD
1000
TCW40_DEV_WIDTH
1002
{
1040
-3.0
1002
}
  0
ARC
  5
396
102
{ACAD_REACTORS
330
41A
102
}
100
AcDbEntity
  8
0
100
AcDbCircle
 10
439.817823022124
 20
263.96985671059
 30
0.0
 40
28.985397528809
100
AcDbArc
 50
152.752642627227
 51
183.18945085417
1001
ACAD
1000
TCW40_DEV_WIDTH
1002
{
1040
-3.0
1002
}
  0
ARC
  5
397
102
{ACAD_REACTORS
330
41A
102
}
100
AcDbEntity
  8
0
100
AcDbCircle
 10
381.539153361949
 20
260.904304504988
 30
0.0
 40
29.453240950489
100
AcDbArc
 50
5.441106184699
 51
36.879711558443
1001
ACAD
1000
TCW40_DEV_WIDTH
1002
{
1040
-3.0
1002
}
  0
ARC
  5
398
102
{ACAD_REACTORS
330
41A
102
}
100
AcDbEntity
  8
0
100
AcDbCircle
 10
396.35354133942
 20
262.325447681439
 30
0.0
 40
14.570850790881
100
AcDbArc
 50
174.598223215051
 51
365.401776784956
1001
ACAD
1000
TCW40_DEV_WIDTH
1002
{
1040
-3.0
1002
}
  0
ARC
  5
399
102
{ACAD_REACTORS
330
41A
102
}
100
AcDbEntity
  8
0
100
AcDbCircle
 10
386.424178167515
 20
303.107574040103
 30
0.0
 40
37.210700754926
100
AcDbArc
 50
-19.915665614925
 51
1.592194131624
1001
ACAD
1000
TCW40_DEV_WIDTH
1002
{
1040
-3.0
1002
}
  0
ARC
  5
39A
102
{ACAD_REACTORS
330
41A
102
}
100
AcDbEntity
  8
0
100
AcDbCircle
 10
431.844283300855
 20
304.447533142211
 30
0.0
 40
37.210700754926
100
AcDbArc
 50
178.407805868376
 51
199.915665614925
1001
ACAD
1000
TCW40_DEV_WIDTH
1002
{
1040
-3.0
1002
}
  0
ARC
  5
39B
102
{ACAD_REACTORS
330
41A
102
}
100
AcDbEntity
  8
0
100
AcDbCircle
 10
412.69036803176
 20
304.344843239145
 30
0.0
 40
18.051801549661
100
AcDbArc
 50
98.325059432651
 51
178.152598482266
1001
ACAD
1000
TCW40_DEV_WIDTH
1002
{
1040
-3.0
1002
}
  0
ARC
  5
39C
102
{ACAD_REACTORS
330
41A
102
}
100
AcDbEntity
  8
0
100
AcDbCircle
 10
404.021226646371
 20
303.56668039467
 30
0.0
 40
19.598684282262
100
AcDbArc
 50
-0.660417629723
 51
72.002726467345
1001
ACAD
1000
TCW40_DEV_WIDTH
1002
{
1040
-3.0
1002
}
  0
LINE
  5
39D
102
{ACAD_REACTORS
330
41A
102
}
100
AcDbEntity
  8
0
100
AcDbLine
 10
396.858967519999
 20
291.772205517786
 30
0.0
 11
405.098718836137
 21
278.580284736789
 31
0.0
1001
ACAD
1000
TCW40_DEV_WIDTH
1002
{
1040
-3.0
1002
}
  0
LINE
  5
39E
102
{ACAD_REACTORS
330
41A
102
}
100
AcDbEntity
  8
0
100
AcDbLine
 10
421.40949394837
 20
290.432246415679
 30
0.0
 11
414.048695671013
 21
277.240325634681
 31
0.0
1001
ACAD
1000
TCW40_DEV_WIDTH
1002
{
1040
-3.0
1002
}
  0
ARC
  5
39F
102
{ACAD_REACTORS
330
41A
102
}
100
AcDbEntity
  8
0
100
AcDbCircle
 10
468.816976937411
 20
263.96985671059
 30
0.0
 40
28.985397528809
100
AcDbArc
 50
152.752642627227
 51
183.18945085417
1001
ACAD
1000
TCW40_DEV_WIDTH
1002
{
1040
-3.0
1002
}
  0
ARC
  5
3A0
102
{ACAD_REACTORS
330
41A
102
}
100
AcDbEntity
  8
0
100
AcDbCircle
 10
410.538307277235
 20
260.904304504988
 30
0.0
 40
29.453240950489
100
AcDbArc
 50
5.441106184699
 51
36.879711558443
1001
ACAD
1000
TCW40_DEV_WIDTH
1002
{
1040
-3.0
1002
}
  0
ARC
  5
3A1
102
{ACAD_REACTORS
330
41A
102
}
100
AcDbEntity
  8
0
100
AcDbCircle
 10
425.352695254707
 20
262.325447681439
 30
0.0
 40
14.570850790881
100
AcDbArc
 50
174.598223215051
 51
365.401776784955
1001
ACAD
1000
TCW40_DEV_WIDTH
1002
{
1040
-3.0
1002
}
  0
ARC
  5
3A2
102
{ACAD_REACTORS
330
41A
102
}
100
AcDbEntity
  8
0
100
AcDbCircle
 10
415.423332082802
 20
303.107574040103
 30
0.0
 40
37.210700754925
100
AcDbArc
 50
-19.915665614925
 51
1.592194131624
1001
ACAD
1000
TCW40_DEV_WIDTH
1002
{
1040
-3.0
1002
}
  0
ARC
  5
3A3
102
{ACAD_REACTORS
330
41A
102
}
100
AcDbEntity
  8
0
100
AcDbCircle
 10
460.843437216141
 20
304.447533142211
 30
0.0
 40
37.210700754926
100
AcDbArc
 50
178.407805868376
 51
199.915665614925
1001
ACAD
1000
TCW40_DEV_WIDTH
1002
{
1040
-3.0
1002
}
  0
ARC
  5
3A4
102
{ACAD_REACTORS
330
41A
102
}
100
AcDbEntity
  8
0
100
AcDbCircle
 10
441.689521947046
 20
304.344843239145
 30
0.0
 40
18.05180154966
100
AcDbArc
 50
98.325059432652
 51
178.152598482266
1001
ACAD
1000
TCW40_DEV_WIDTH
1002
{
1040
-3.0
1002
}
  0
ARC
  5
3A5
102
{ACAD_REACTORS
330
41A
102
}
100
AcDbEntity
  8
0
100
AcDbCircle
 10
433.020380561657
 20
303.56668039467
 30
0.0
 40
19.598684282262
100
AcDbArc
 50
-0.660417629723
 51
72.002726467345
1001
ACAD
1000
TCW40_DEV_WIDTH
1002
{
1040
-3.0
1002
}
  0
LINE
  5
3A6
102
{ACAD_REACTORS
330
41A
102
}
100
AcDbEntity
  8
0
100
AcDbLine
 10
425.858121435286
 20
291.772205517786
 30
0.0
 11
434.097872751423
 21
278.580284736789
 31
0.0
1001
ACAD
1000
TCW40_DEV_WIDTH
1002
{
1040
-3.0
1002
}
  0
LINE
  5
3A7
102
{ACAD_REACTORS
330
41A
102
}
100
AcDbEntity
  8
0
100
AcDbLine
 10
450.408647863656
 20
290.432246415679
 30
0.0
 11
443.047849586299
 21
277.240325634681
 31
0.0
1001
ACAD
1000
TCW40_DEV_WIDTH
1002
{
1040
-3.0
1002
}
  0
ARC
  5
3A8
102
{ACAD_REACTORS
330
41A
102
}
100
AcDbEntity
  8
0
100
AcDbCircle
 10
497.78700235356
 20
263.96985671059
 30
0.0
 40
28.985397528809
100
AcDbArc
 50
152.752642627227
 51
183.18945085417
1001
ACAD
1000
TCW40_DEV_WIDTH
1002
{
1040
-3.0
1002
}
  0
ARC
  5
3A9
102
{ACAD_REACTORS
330
41A
102
}
100
AcDbEntity
  8
0
100
AcDbCircle
 10
439.508332693384
 20
260.904304504988
 30
0.0
 40
29.453240950489
100
AcDbArc
 50
5.441106184699
 51
36.879711558443
1001
ACAD
1000
TCW40_DEV_WIDTH
1002
{
1040
-3.0
1002
}
  0
ARC
  5
3AA
102
{ACAD_REACTORS
330
41A
102
}
100
AcDbEntity
  8
0
100
AcDbCircle
 10
454.322720670855
 20
262.325447681439
 30
0.0
 40
14.570850790881
100
AcDbArc
 50
174.59822321505
 51
365.401776784955
1001
ACAD
1000
TCW40_DEV_WIDTH
1002
{
1040
-3.0
1002
}
  0
ARC
  5
3AB
102
{ACAD_REACTORS
330
41A
102
}
100
AcDbEntity
  8
0
100
AcDbCircle
 10
444.39335749895
 20
303.107574040103
 30
0.0
 40
37.210700754926
100
AcDbArc
 50
-19.915665614925
 51
1.592194131624
1001
ACAD
1000
TCW40_DEV_WIDTH
1002
{
1040
-3.0
1002
}
  0
ARC
  5
3AC
102
{ACAD_REACTORS
330
41A
102
}
100
AcDbEntity
  8
0
100
AcDbCircle
 10
489.813462632289
 20
304.447533142211
 30
0.0
 40
37.210700754926
100
AcDbArc
 50
178.407805868376
 51
199.915665614925
1001
ACAD
1000
TCW40_DEV_WIDTH
1002
{
1040
-3.0
1002
}
  0
ARC
  5
3AD
102
{ACAD_REACTORS
330
41A
102
}
100
AcDbEntity
  8
0
100
AcDbCircle
 10
470.659547363195
 20
304.344843239145
 30
0.0
 40
18.051801549661
100
AcDbArc
 50
98.325059432652
 51
178.152598482266
1001
ACAD
1000
TCW40_DEV_WIDTH
1002
{
1040
-3.0
1002
}
  0
ARC
  5
3AE
102
{ACAD_REACTORS
330
41A
102
}
100
AcDbEntity
  8
0
100
AcDbCircle
 10
461.990405977805
 20
303.56668039467
 30
0.0
 40
19.598684282262
100
AcDbArc
 50
-0.660417629723
 51
72.002726467344
1001
ACAD
1000
TCW40_DEV_WIDTH
1002
{
1040
-3.0
1002
}
  0
LINE
  5
3AF
102
{ACAD_REACTORS
330
41A
102
}
100
AcDbEntity
  8
0
100
AcDbLine
 10
454.828146851434
 20
291.772205517786
 30
0.0
 11
463.067898167572
 21
278.580284736789
 31
0.0
1001
ACAD
1000
TCW40_DEV_WIDTH
1002
{
1040
-3.0
1002
}
  0
LINE
  5
3B0
102
{ACAD_REACTORS
330
41A
102
}
100
AcDbEntity
  8
0
100
AcDbLine
 10
479.378673279805
 20
290.432246415679
 30
0.0
 11
472.017875002447
 21
277.240325634681
 31
0.0
1001
ACAD
1000
TCW40_DEV_WIDTH
1002
{
1040
-3.0
1002
}
  0
ARC
  5
3B1
102
{ACAD_REACTORS
330
41A
102
}
100
AcDbEntity
  8
0
100
AcDbCircle
 10
526.813664342233
 20
263.96985671059
 30
0.0
 40
28.985397528809
100
AcDbArc
 50
152.752642627227
 51
183.18945085417
1001
ACAD
1000
TCW40_DEV_WIDTH
1002
{
1040
-3.0
1002
}
  0
ARC
  5
3B2
102
{ACAD_REACTORS
330
41A
102
}
100
AcDbEntity
  8
0
100
AcDbCircle
 10
468.534994682057
 20
260.904304504988
 30
0.0
 40
29.453240950489
100
AcDbArc
 50
5.441106184699
 51
36.879711558442
1001
ACAD
1000
TCW40_DEV_WIDTH
1002
{
1040
-3.0
1002
}
  0
ARC
  5
3B3
102
{ACAD_REACTORS
330
41A
102
}
100
AcDbEntity
  8
0
100
AcDbCircle
 10
483.349382659529
 20
262.325447681439
 30
0.0
 40
14.570850790881
100
AcDbArc
 50
174.598223215051
 51
365.401776784956
1001
ACAD
1000
TCW40_DEV_WIDTH
1002
{
1040
-3.0
1002
}
  0
ARC
  5
3B4
102
{ACAD_REACTORS
330
41A
102
}
100
AcDbEntity
  8
0
100
AcDbCircle
 10
473.420019487623
 20
303.107574040103
 30
0.0
 40
37.210700754926
100
AcDbArc
 50
-19.915665614925
 51
1.592194131624
1001
ACAD
1000
TCW40_DEV_WIDTH
1002
{
1040
-3.0
1002
}
  0
ARC
  5
3B5
102
{ACAD_REACTORS
330
41A
102
}
100
AcDbEntity
  8
0
100
AcDbCircle
 10
518.840124620963
 20
304.447533142211
 30
0.0
 40
37.210700754926
100
AcDbArc
 50
178.407805868376
 51
199.915665614925
1001
ACAD
1000
TCW40_DEV_WIDTH
1002
{
1040
-3.0
1002
}
  0
ARC
  5
3B6
102
{ACAD_REACTORS
330
41A
102
}
100
AcDbEntity
  8
0
100
AcDbCircle
 10
499.686209351868
 20
304.344843239145
 30
0.0
 40
18.051801549661
100
AcDbArc
 50
98.325059432652
 51
178.152598482266
1001
ACAD
1000
TCW40_DEV_WIDTH
1002
{
1040
-3.0
1002
}
  0
ARC
  5
3B7
102
{ACAD_REACTORS
330
41A
102
}
100
AcDbEntity
  8
0
100
AcDbCircle
 10
491.017067966479
 20
303.56668039467
 30
0.0
 40
19.598684282262
100
AcDbArc
 50
-0.660417629723
 51
72.002726467344
1001
ACAD
1000
TCW40_DEV_WIDTH
1002
{
1040
-3.0
1002
}
  0
LINE
  5
3B8
102
{ACAD_REACTORS
330
41A
102
}
100
AcDbEntity
  8
0
100
AcDbLine
 10
483.854808840108
 20
291.772205517786
 30
0.0
 11
492.094560156246
 21
278.580284736789
 31
0.0
1001
ACAD
1000
TCW40_DEV_WIDTH
1002
{
1040
-3.0
1002
}
  0
LINE
  5
3B9
102
{ACAD_REACTORS
330
41A
102
}
100
AcDbEntity
  8
0
100
AcDbLine
 10
508.405335268478
 20
290.432246415679
 30
0.0
 11
501.044536991121
 21
277.240325634681
 31
0.0
1001
ACAD
1000
TCW40_DEV_WIDTH
1002
{
1040
-3.0
1002
}
  0
ARC
  5
3BA
102
{ACAD_REACTORS
330
41A
102
}
100
AcDbEntity
  8
0
100
AcDbCircle
 10
555.823608041066
 20
263.96985671059
 30
0.0
 40
28.985397528809
100
AcDbArc
 50
152.752642627227
 51
183.18945085417
1001
ACAD
1000
TCW40_DEV_WIDTH
1002
{
1040
-3.0
1002
}
  0
ARC
  5
3BB
102
{ACAD_REACTORS
330
41A
102
}
100
AcDbEntity
  8
0
100
AcDbCircle
 10
497.54493838089
 20
260.904304504988
 30
0.0
 40
29.453240950489
100
AcDbArc
 50
5.441106184699
 51
36.879711558443
1001
ACAD
1000
TCW40_DEV_WIDTH
1002
{
1040
-3.0
1002
}
  0
ARC
  5
3BC
102
{ACAD_REACTORS
330
41A
102
}
100
AcDbEntity
  8
0
100
AcDbCircle
 10
512.359326358362
 20
262.325447681439
 30
0.0
 40
14.570850790881
100
AcDbArc
 50
174.598223215051
 51
365.401776784956
1001
ACAD
1000
TCW40_DEV_WIDTH
1002
{
1040
-3.0
1002
}
  0
ARC
  5
3BD
102
{ACAD_REACTORS
330
41A
102
}
100
AcDbEntity
  8
0
100
AcDbCircle
 10
502.429963186456
 20
303.107574040103
 30
0.0
 40
37.210700754926
100
AcDbArc
 50
-19.915665614925
 51
1.592194131624
1001
ACAD
1000
TCW40_DEV_WIDTH
1002
{
1040
-3.0
1002
}
  0
ARC
  5
3BE
102
{ACAD_REACTORS
330
41A
102
}
100
AcDbEntity
  8
0
100
AcDbCircle
 10
547.850068319796
 20
304.447533142211
 30
0.0
 40
37.210700754926
100
AcDbArc
 50
178.407805868376
 51
199.915665614925
1001
ACAD
1000
TCW40_DEV_WIDTH
1002
{
1040
-3.0
1002
}
  0
ARC
  5
3BF
102
{ACAD_REACTORS
330
41A
102
}
100
AcDbEntity
  8
0
100
AcDbCircle
 10
528.696153050702
 20
304.344843239145
 30
0.0
 40
18.051801549661
100
AcDbArc
 50
98.325059432653
 51
178.152598482266
1001
ACAD
1000
TCW40_DEV_WIDTH
1002
{
1040
-3.0
1002
}
  0
ARC
  5
3C0
102
{ACAD_REACTORS
330
41A
102
}
100
AcDbEntity
  8
0
100
AcDbCircle
 10
520.027011665312
 20
303.56668039467
 30
0.0
 40
19.598684282262
100
AcDbArc
 50
-0.660417629723
 51
72.002726467343
1001
ACAD
1000
TCW40_DEV_WIDTH
1002
{
1040
-3.0
1002
}
  0
LINE
  5
3C1
102
{ACAD_REACTORS
330
41A
102
}
100
AcDbEntity
  8
0
100
AcDbLine
 10
512.864752538941
 20
291.772205517786
 30
0.0
 11
521.104503855079
 21
278.580284736789
 31
0.0
1001
ACAD
1000
TCW40_DEV_WIDTH
1002
{
1040
-3.0
1002
}
  0
LINE
  5
3C2
102
{ACAD_REACTORS
330
41A
102
}
100
AcDbEntity
  8
0
100
AcDbLine
 10
537.415278967311
 20
290.432246415679
 30
0.0
 11
530.054480689954
 21
277.240325634681
 31
0.0
1001
ACAD
1000
TCW40_DEV_WIDTH
1002
{
1040
-3.0
1002
}
  0
ARC
  5
3C3
102
{ACAD_REACTORS
330
41A
102
}
100
AcDbEntity
  8
0
100
AcDbCircle
 10
584.824108231523
 20
263.96985671059
 30
0.0
 40
28.985397528809
100
AcDbArc
 50
152.752642627227
 51
183.18945085417
1001
ACAD
1000
TCW40_DEV_WIDTH
1002
{
1040
-3.0
1002
}
  0
ARC
  5
3C4
102
{ACAD_REACTORS
330
41A
102
}
100
AcDbEntity
  8
0
100
AcDbCircle
 10
526.545438571347
 20
260.904304504988
 30
0.0
 40
29.453240950489
100
AcDbArc
 50
5.441106184699
 51
36.879711558443
1001
ACAD
1000
TCW40_DEV_WIDTH
1002
{
1040
-3.0
1002
}
  0
ARC
  5
3C5
102
{ACAD_REACTORS
330
41A
102
}
100
AcDbEntity
  8
0
100
AcDbCircle
 10
541.359826548819
 20
262.325447681439
 30
0.0
 40
14.570850790881
100
AcDbArc
 50
174.598223215051
 51
365.401776784956
1001
ACAD
1000
TCW40_DEV_WIDTH
1002
{
1040
-3.0
1002
}
  0
ARC
  5
3C6
102
{ACAD_REACTORS
330
41A
102
}
100
AcDbEntity
  8
0
100
AcDbCircle
 10
531.430463376913
 20
303.107574040103
 30
0.0
 40
37.210700754926
100
AcDbArc
 50
-19.915665614925
 51
1.592194131624
1001
ACAD
1000
TCW40_DEV_WIDTH
1002
{
1040
-3.0
1002
}
  0
ARC
  5
3C7
102
{ACAD_REACTORS
330
41A
102
}
100
AcDbEntity
  8
0
100
AcDbCircle
 10
576.850568510253
 20
304.447533142211
 30
0.0
 40
37.210700754926
100
AcDbArc
 50
178.407805868376
 51
199.915665614925
1001
ACAD
1000
TCW40_DEV_WIDTH
1002
{
1040
-3.0
1002
}
  0
ARC
  5
3C8
102
{ACAD_REACTORS
330
41A
102
}
100
AcDbEntity
  8
0
100
AcDbCircle
 10
557.696653241158
 20
304.344843239145
 30
0.0
 40
18.051801549661
100
AcDbArc
 50
98.325059432651
 51
178.152598482266
1001
ACAD
1000
TCW40_DEV_WIDTH
1002
{
1040
-3.0
1002
}
  0
ARC
  5
3C9
102
{ACAD_REACTORS
330
41A
102
}
100
AcDbEntity
  8
0
100
AcDbCircle
 10
549.027511855769
 20
303.56668039467
 30
0.0
 40
19.598684282262
100
AcDbArc
 50
-0.660417629723
 51
72.002726467343
1001
ACAD
1000
TCW40_DEV_WIDTH
1002
{
1040
-3.0
1002
}
  0
LINE
  5
3CA
102
{ACAD_REACTORS
330
41A
102
}
100
AcDbEntity
  8
0
100
AcDbLine
 10
541.865252729398
 20
291.772205517786
 30
0.0
 11
550.105004045536
 21
278.580284736789
 31
0.0
1001
ACAD
1000
TCW40_DEV_WIDTH
1002
{
1040
-3.0
1002
}
  0
LINE
  5
3CB
102
{ACAD_REACTORS
330
41A
102
}
100
AcDbEntity
  8
0
100
AcDbLine
 10
566.415779157768
 20
290.432246415679
 30
0.0
 11
559.054980880411
 21
277.240325634681
 31
0.0
1001
ACAD
1000
TCW40_DEV_WIDTH
1002
{
1040
-3.0
1002
}
  0
ARC
  5
3CC
102
{ACAD_REACTORS
330
41A
102
}
100
AcDbEntity
  8
0
100
AcDbCircle
 10
555.682426586337
 20
260.904304504988
 30
0.0
 40
29.453240950489
100
AcDbArc
 50
5.441106184699
 51
36.879711558442
1001
ACAD
1000
TCW40_DEV_WIDTH
1002
{
1040
-3.0
1002
}
  0
ARC
  5
3CD
102
{ACAD_REACTORS
330
41A
102
}
100
AcDbEntity
  8
0
100
AcDbCircle
 10
570.496814563808
 20
262.325447681439
 30
0.0
 40
14.570850790881
100
AcDbArc
 50
174.598223215051
 51
365.401776784956
1001
ACAD
1000
TCW40_DEV_WIDTH
1002
{
1040
-3.0
1002
}
  0
ARC
  5
3CE
102
{ACAD_REACTORS
330
41A
102
}
100
AcDbEntity
  8
0
100
AcDbCircle
 10
605.987556525243
 20
304.447533142211
 30
0.0
 40
37.210700754926
100
AcDbArc
 50
178.407805868376
 51
199.915665614925
1001
ACAD
1000
TCW40_DEV_WIDTH
1002
{
1040
-3.0
1002
}
  0
ARC
  5
3CF
102
{ACAD_REACTORS
330
41A
102
}
100
AcDbEntity
  8
0
100
AcDbCircle
 10
586.833641256148
 20
304.344843239145
 30
0.0
 40
18.051801549661
100
AcDbArc
 50
98.325059432651
 51
178.152598482266
1001
ACAD
1000
TCW40_DEV_WIDTH
1002
{
1040
-3.0
1002
}
  0
ARC
  5
3D0
102
{ACAD_REACTORS
330
41A
102
}
100
AcDbEntity
  8
0
100
AcDbCircle
 10
578.164499870758
 20
303.56668039467
 30
0.0
 40
19.598684282262
100
AcDbArc
 50
-0.660417629723
 51
72.002726467344
1001
ACAD
1000
TCW40_DEV_WIDTH
1002
{
1040
-3.0
1002
}
  0
LINE
  5
3D1
102
{ACAD_REACTORS
330
41A
102
}
100
AcDbEntity
  8
0
100
AcDbLine
 10
571.002240744388
 20
291.772205517786
 30
0.0
 11
579.241992060525
 21
278.580284736789
 31
0.0
1001
ACAD
1000
TCW40_DEV_WIDTH
1002
{
1040
-3.0
1002
}
  0
ARC
  5
3D2
102
{ACAD_REACTORS
330
41A
102
}
100
AcDbEntity
  8
0
100
AcDbCircle
 10
788.2203667628
 20
261.619658171845
 30
0.0
 40
29.453240950489
100
AcDbArc
 50
27.086544357087
 51
36.879711558442
1001
ACAD
1000
TCW40_DEV_WIDTH
1002
{
1040
-3.0
1002
}
  0
ARC
  5
3D3
102
{ACAD_REACTORS
330
41A
102
}
100
AcDbEntity
  8
0
100
AcDbCircle
 10
803.03475474027
 20
262.488708503142
 30
0.0
 40
14.570850790881
100
AcDbArc
 50
174.598223215051
 51
321.532528770002
1001
ACAD
1000
TCW40_DEV_WIDTH
1002
{
1040
-3.0
1002
}
  0
ARC
  5
3D4
102
{ACAD_REACTORS
330
41A
102
}
100
AcDbEntity
  8
0
100
AcDbCircle
 10
817.377277549412
 20
263.396967208991
 30
0.0
 40
28.985397528809
100
AcDbArc
 50
152.752642627227
 51
183.18945085417
1001
ACAD
1000
TCW40_DEV_WIDTH
1002
{
1040
-3.0
1002
}
  0
ARC
  5
3D5
102
{ACAD_REACTORS
330
41A
102
}
100
AcDbEntity
  8
0
100
AcDbCircle
 10
838.525496701704
 20
305.162886809067
 30
0.0
 40
37.210700754926
100
AcDbArc
 50
178.407805868376
 51
199.915665614925
1001
ACAD
1000
TCW40_DEV_WIDTH
1002
{
1040
-3.0
1002
}
  0
ARC
  5
3D6
102
{ACAD_REACTORS
330
41A
102
}
100
AcDbEntity
  8
0
100
AcDbCircle
 10
763.983632694803
 20
302.534684538503
 30
0.0
 40
37.210700754925
100
AcDbArc
 50
-19.915665614925
 51
1.592194131624
1001
ACAD
1000
TCW40_DEV_WIDTH
1002
{
1040
-3.0
1002
}
  0
ARC
  5
3D7
102
{ACAD_REACTORS
330
41A
102
}
100
AcDbEntity
  8
0
100
AcDbCircle
 10
819.37158143261
 20
304.508104060849
 30
0.0
 40
18.051801549661
100
AcDbArc
 50
105.843754593633
 51
178.152598482266
1001
ACAD
1000
TCW40_DEV_WIDTH
1002
{
1040
-3.0
1002
}
  0
LINE
  5
3D8
102
{ACAD_REACTORS
330
41A
102
}
100
AcDbEntity
  8
0
100
AcDbLine
 10
803.54018092085
 20
292.487559184643
 30
0.0
 11
811.779932236987
 21
279.295638403646
 31
0.0
1001
ACAD
1000
TCW40_DEV_WIDTH
1002
{
1040
-3.0
1002
}
  0
LINE
  5
3D9
102
{ACAD_REACTORS
330
41A
102
}
100
AcDbEntity
  8
0
100
AcDbLine
 10
798.968948475658
 20
289.859356914079
 30
0.0
 11
791.6081501983
 21
276.667436133081
 31
0.0
1001
ACAD
1000
TCW40_DEV_WIDTH
1002
{
1040
-3.0
1002
}
  0
ARC
  5
3DA
102
{ACAD_REACTORS
330
41A
102
}
100
AcDbEntity
  8
0
100
AcDbCircle
 10
759.144338453062
 20
261.067565326692
 30
0.0
 40
29.453240950489
100
AcDbArc
 50
5.441106184698
 51
36.879711558443
1001
ACAD
1000
TCW40_DEV_WIDTH
1002
{
1040
-3.0
1002
}
  0
ARC
  5
3DB
102
{ACAD_REACTORS
330
41A
102
}
100
AcDbEntity
  8
0
100
AcDbCircle
 10
773.958726430533
 20
262.488708503142
 30
0.0
 40
14.570850790881
100
AcDbArc
 50
174.598223215051
 51
365.401776784955
1001
ACAD
1000
TCW40_DEV_WIDTH
1002
{
1040
-3.0
1002
}
  0
ARC
  5
3DC
102
{ACAD_REACTORS
330
41A
102
}
100
AcDbEntity
  8
0
100
AcDbCircle
 10
730.159311989954
 20
261.619658171845
 30
0.0
 40
29.45324095049
100
AcDbArc
 50
5.441106184698
 51
36.879711558443
1001
ACAD
1000
TCW40_DEV_WIDTH
1002
{
1040
-3.0
1002
}
  0
ARC
  5
3DD
102
{ACAD_REACTORS
330
41A
102
}
100
AcDbEntity
  8
0
100
AcDbCircle
 10
788.437981650131
 20
264.685210377448
 30
0.0
 40
28.985397528809
100
AcDbArc
 50
152.752642627227
 51
183.18945085417
1001
ACAD
1000
TCW40_DEV_WIDTH
1002
{
1040
-3.0
1002
}
  0
ARC
  5
3DE
102
{ACAD_REACTORS
330
41A
102
}
100
AcDbEntity
  8
0
100
AcDbCircle
 10
744.973699967427
 20
262.488708503142
 30
0.0
 40
14.570850790881
100
AcDbArc
 50
174.598223215051
 51
365.401776784956
1001
ACAD
1000
TCW40_DEV_WIDTH
1002
{
1040
-3.0
1002
}
  0
ARC
  5
3DF
102
{ACAD_REACTORS
330
41A
102
}
100
AcDbEntity
  8
0
100
AcDbCircle
 10
759.432059970342
 20
264.133117532294
 30
0.0
 40
28.985397528809
100
AcDbArc
 50
152.752642627227
 51
183.18945085417
1001
ACAD
1000
TCW40_DEV_WIDTH
1002
{
1040
-3.0
1002
}
  0
ARC
  5
3E0
102
{ACAD_REACTORS
330
41A
102
}
100
AcDbEntity
  8
0
100
AcDbCircle
 10
701.153390310166
 20
261.067565326692
 30
0.0
 40
29.453240950489
100
AcDbArc
 50
5.441106184699
 51
36.879711558442
1001
ACAD
1000
TCW40_DEV_WIDTH
1002
{
1040
-3.0
1002
}
  0
ARC
  5
3E1
102
{ACAD_REACTORS
330
41A
102
}
100
AcDbEntity
  8
0
100
AcDbCircle
 10
715.967778287637
 20
262.488708503142
 30
0.0
 40
14.570850790881
100
AcDbArc
 50
174.598223215051
 51
365.401776784955
1001
ACAD
1000
TCW40_DEV_WIDTH
1002
{
1040
-3.0
1002
}
  0
ARC
  5
3E2
102
{ACAD_REACTORS
330
41A
102
}
100
AcDbEntity
  8
0
100
AcDbCircle
 10
730.447033507234
 20
264.685210377448
 30
0.0
 40
28.985397528809
100
AcDbArc
 50
152.752642627227
 51
183.18945085417
1001
ACAD
1000
TCW40_DEV_WIDTH
1002
{
1040
-3.0
1002
}
  0
ARC
  5
3E3
102
{ACAD_REACTORS
330
41A
102
}
100
AcDbEntity
  8
0
100
AcDbCircle
 10
761.305270531983
 20
304.512711266242
 30
0.0
 40
18.04648243255
100
AcDbArc
 50
98.310665485899
 51
178.158539205585
1001
ACAD
1000
TCW40_DEV_WIDTH
1002
{
1040
-3.0
1002
}
  0
ARC
  5
3E4
102
{ACAD_REACTORS
330
41A
102
}
100
AcDbEntity
  8
0
100
AcDbCircle
 10
780.464441928861
 20
305.162886809067
 30
0.0
 40
37.210700754926
100
AcDbArc
 50
178.407805868376
 51
199.915665614925
1001
ACAD
1000
TCW40_DEV_WIDTH
1002
{
1040
-3.0
1002
}
  0
ARC
  5
3E5
102
{ACAD_REACTORS
330
41A
102
}
100
AcDbEntity
  8
0
100
AcDbCircle
 10
706.038415115733
 20
303.270834861806
 30
0.0
 40
37.210700754926
100
AcDbArc
 50
-19.915665614925
 51
1.592194131624
1001
ACAD
1000
TCW40_DEV_WIDTH
1002
{
1040
-3.0
1002
}
  0
ARC
  5
3E6
102
{ACAD_REACTORS
330
41A
102
}
100
AcDbEntity
  8
0
100
AcDbCircle
 10
751.458520249072
 20
304.610793963914
 30
0.0
 40
37.210700754926
100
AcDbArc
 50
178.407805868376
 51
199.915665614925
1001
ACAD
1000
TCW40_DEV_WIDTH
1002
{
1040
-3.0
1002
}
  0
ARC
  5
3E7
102
{ACAD_REACTORS
330
41A
102
}
100
AcDbEntity
  8
0
100
AcDbCircle
 10
732.304604979978
 20
304.508104060849
 30
0.0
 40
18.051801549661
100
AcDbArc
 50
98.325059432651
 51
178.152598482265
1001
ACAD
1000
TCW40_DEV_WIDTH
1002
{
1040
-3.0
1002
}
  0
ARC
  5
3E8
102
{ACAD_REACTORS
330
41A
102
}
100
AcDbEntity
  8
0
100
AcDbCircle
 10
723.635463594588
 20
303.729941216373
 30
0.0
 40
19.598684282262
100
AcDbArc
 50
-0.660417629724
 51
72.002726467342
1001
ACAD
1000
TCW40_DEV_WIDTH
1002
{
1040
-3.0
1002
}
  0
LINE
  5
3E9
102
{ACAD_REACTORS
330
41A
102
}
100
AcDbEntity
  8
0
100
AcDbLine
 10
716.473204468217
 20
291.93546633949
 30
0.0
 11
724.712955784354
 21
278.743545558492
 31
0.0
1001
ACAD
1000
TCW40_DEV_WIDTH
1002
{
1040
-3.0
1002
}
  0
LINE
  5
3EA
102
{ACAD_REACTORS
330
41A
102
}
100
AcDbEntity
  8
0
100
AcDbLine
 10
745.479126148006
 20
292.487559184643
 30
0.0
 11
753.718877464144
 21
279.295638403646
 31
0.0
1001
ACAD
1000
TCW40_DEV_WIDTH
1002
{
1040
-3.0
1002
}
  0
LINE
  5
3EB
102
{ACAD_REACTORS
330
41A
102
}
100
AcDbEntity
  8
0
100
AcDbLine
 10
741.023730896587
 20
290.595507237382
 30
0.0
 11
733.662932619229
 21
277.403586456385
 31
0.0
1001
ACAD
1000
TCW40_DEV_WIDTH
1002
{
1040
-3.0
1002
}
  0
ARC
  5
3EC
102
{ACAD_REACTORS
330
41A
102
}
100
AcDbEntity
  8
0
100
AcDbCircle
 10
735.044336795522
 20
303.82292770696
 30
0.0
 40
37.210700754926
100
AcDbArc
 50
-19.915665614925
 51
1.592194131624
1001
ACAD
1000
TCW40_DEV_WIDTH
1002
{
1040
-3.0
1002
}
  0
ARC
  5
3ED
102
{ACAD_REACTORS
330
41A
102
}
100
AcDbEntity
  8
0
100
AcDbCircle
 10
809.449468391967
 20
304.610793963914
 30
0.0
 40
37.210700754926
100
AcDbArc
 50
178.407805868376
 51
199.915665614925
1001
ACAD
1000
TCW40_DEV_WIDTH
1002
{
1040
-3.0
1002
}
  0
ARC
  5
3EE
102
{ACAD_REACTORS
330
41A
102
}
100
AcDbEntity
  8
0
100
AcDbCircle
 10
790.295553122873
 20
304.508104060849
 30
0.0
 40
18.051801549661
100
AcDbArc
 50
98.325059432653
 51
178.152598482265
1001
ACAD
1000
TCW40_DEV_WIDTH
1002
{
1040
-3.0
1002
}
  0
ARC
  5
3EF
102
{ACAD_REACTORS
330
41A
102
}
100
AcDbEntity
  8
0
100
AcDbCircle
 10
752.647487158517
 20
303.734352353852
 30
0.0
 40
19.592604169796
100
AcDbArc
 50
-0.666020114716
 51
72.015711812654
1001
ACAD
1000
TCW40_DEV_WIDTH
1002
{
1040
-3.0
1002
}
  0
ARC
  5
3F0
102
{ACAD_REACTORS
330
41A
102
}
100
AcDbEntity
  8
0
100
AcDbCircle
 10
781.626411737484
 20
303.729941216373
 30
0.0
 40
19.598684282263
100
AcDbArc
 50
-0.660417629723
 51
72.002726467344
1001
ACAD
1000
TCW40_DEV_WIDTH
1002
{
1040
-3.0
1002
}
  0
LINE
  5
3F1
102
{ACAD_REACTORS
330
41A
102
}
100
AcDbEntity
  8
0
100
AcDbLine
 10
774.464152611113
 20
291.93546633949
 30
0.0
 11
782.703903927251
 21
278.743545558492
 31
0.0
1001
ACAD
1000
TCW40_DEV_WIDTH
1002
{
1040
-3.0
1002
}
  0
LINE
  5
3F2
102
{ACAD_REACTORS
330
41A
102
}
100
AcDbEntity
  8
0
100
AcDbLine
 10
770.029652576376
 20
291.147600082536
 30
0.0
 11
762.668854299019
 21
277.955679301538
 31
0.0
1001
ACAD
1000
TCW40_DEV_WIDTH
1002
{
1040
-3.0
1002
}
  0
ARC
  5
3F3
102
{ACAD_REACTORS
330
41A
102
}
100
AcDbEntity
  8
0
100
AcDbCircle
 10
695.97364507301
 20
304.130162036301
 30
0.0
 40
18.284897488448
100
AcDbArc
 50
-1.962330291059
 51
75.000804908552
1001
ACAD
1000
TCW40_DEV_WIDTH
1002
{
1040
-3.0
1002
}
  0
ARC
  5
3F4
102
{ACAD_REACTORS
330
41A
102
}
100
AcDbEntity
  8
0
100
AcDbCircle
 10
672.16836384706
 20
261.619658171845
 30
0.0
 40
29.453240950489
100
AcDbArc
 50
5.441106184698
 51
36.879711558442
1001
ACAD
1000
TCW40_DEV_WIDTH
1002
{
1040
-3.0
1002
}
  0
ARC
  5
3F5
102
{ACAD_REACTORS
330
41A
102
}
100
AcDbEntity
  8
0
100
AcDbCircle
 10
730.447033507234
 20
264.685210377448
 30
0.0
 40
28.985397528809
100
AcDbArc
 50
152.752642627227
 51
183.18945085417
1001
ACAD
1000
TCW40_DEV_WIDTH
1002
{
1040
-3.0
1002
}
  0
ARC
  5
3F6
102
{ACAD_REACTORS
330
41A
102
}
100
AcDbEntity
  8
0
100
AcDbCircle
 10
686.98275182453
 20
262.488708503142
 30
0.0
 40
14.570850790881
100
AcDbArc
 50
174.598223215051
 51
365.401776784956
1001
ACAD
1000
TCW40_DEV_WIDTH
1002
{
1040
-3.0
1002
}
  0
ARC
  5
3F7
102
{ACAD_REACTORS
330
41A
102
}
100
AcDbEntity
  8
0
100
AcDbCircle
 10
701.325274633673
 20
263.396967208991
 30
0.0
 40
28.98539752881
100
AcDbArc
 50
152.752642627227
 51
183.18945085417
1001
ACAD
1000
TCW40_DEV_WIDTH
1002
{
1040
-3.0
1002
}
  0
ARC
  5
3F8
102
{ACAD_REACTORS
330
41A
102
}
100
AcDbEntity
  8
0
100
AcDbCircle
 10
722.473493785965
 20
305.162886809067
 30
0.0
 40
37.210700754926
100
AcDbArc
 50
178.407805868376
 51
199.915665614925
1001
ACAD
1000
TCW40_DEV_WIDTH
1002
{
1040
-3.0
1002
}
  0
ARC
  5
3F9
102
{ACAD_REACTORS
330
41A
102
}
100
AcDbEntity
  8
0
100
AcDbCircle
 10
647.931629779063
 20
302.534684538503
 30
0.0
 40
37.210700754926
100
AcDbArc
 50
-19.915665614925
 51
1.592194131624
1001
ACAD
1000
TCW40_DEV_WIDTH
1002
{
1040
-3.0
1002
}
  0
ARC
  5
3FA
102
{ACAD_REACTORS
330
41A
102
}
100
AcDbEntity
  8
0
100
AcDbCircle
 10
702.184359441724
 20
304.949061851232
 30
0.0
 40
16.90778757258
100
AcDbArc
 50
95.016573112791
 51
179.522218934252
1001
ACAD
1000
TCW40_DEV_WIDTH
1002
{
1040
-3.0
1002
}
  0
LINE
  5
3FB
102
{ACAD_REACTORS
330
41A
102
}
100
AcDbEntity
  8
0
100
AcDbLine
 10
687.48817800511
 20
292.487559184643
 30
0.0
 11
695.727929321247
 21
279.295638403646
 31
0.0
1001
ACAD
1000
TCW40_DEV_WIDTH
1002
{
1040
-3.0
1002
}
  0
LINE
  5
3FC
102
{ACAD_REACTORS
330
41A
102
}
100
AcDbEntity
  8
0
100
AcDbLine
 10
682.916945559919
 20
289.859356914079
 30
0.0
 11
675.55614728256
 21
276.667436133081
 31
0.0
1001
ACAD
1000
TCW40_DEV_WIDTH
1002
{
1040
-3.0
1002
}
  0
ARC
  5
3FD
102
{ACAD_REACTORS
330
41A
102
}
100
AcDbEntity
  8
0
100
AcDbCircle
 10
677.053388652625
 20
303.82292770696
 30
0.0
 40
37.210700754926
100
AcDbArc
 50
-19.915665614925
 51
1.592194131624
1001
ACAD
1000
TCW40_DEV_WIDTH
1002
{
1040
-3.0
1002
}
  0
LINE
  5
3FE
102
{ACAD_REACTORS
330
41A
102
}
100
AcDbEntity
  8
0
100
AcDbLine
 10
712.03870443348
 20
291.147600082536
 30
0.0
 11
704.677906156123
 21
277.955679301538
 31
0.0
1001
ACAD
1000
TCW40_DEV_WIDTH
1002
{
1040
-3.0
1002
}
  0
ARC
  5
3FF
102
{ACAD_REACTORS
330
41A
102
}
100
AcDbEntity
  8
0
100
AcDbCircle
 10
666.85378942427
 20
304.194720042076
 30
0.0
 40
18.284897488447
100
AcDbArc
 50
-1.962330291059
 51
75.000804908551
1001
ACAD
1000
TCW40_DEV_WIDTH
1002
{
1040
-3.0
1002
}
  0
ARC
  5
400
102
{ACAD_REACTORS
330
41A
102
}
100
AcDbEntity
  8
0
100
AcDbCircle
 10
643.048508198319
 20
261.68421617762
 30
0.0
 40
29.45324095049
100
AcDbArc
 50
5.441106184698
 51
36.879711558442
1001
ACAD
1000
TCW40_DEV_WIDTH
1002
{
1040
-3.0
1002
}
  0
ARC
  5
401
102
{ACAD_REACTORS
330
41A
102
}
100
AcDbEntity
  8
0
100
AcDbCircle
 10
657.86289617579
 20
262.553266508917
 30
0.0
 40
14.570850790881
100
AcDbArc
 50
174.59822321505
 51
365.401776784955
1001
ACAD
1000
TCW40_DEV_WIDTH
1002
{
1040
-3.0
1002
}
  0
ARC
  5
402
102
{ACAD_REACTORS
330
41A
102
}
100
AcDbEntity
  8
0
100
AcDbCircle
 10
672.205418984933
 20
263.461525214765
 30
0.0
 40
28.985397528809
100
AcDbArc
 50
152.752642627227
 51
183.18945085417
1001
ACAD
1000
TCW40_DEV_WIDTH
1002
{
1040
-3.0
1002
}
  0
ARC
  5
403
102
{ACAD_REACTORS
330
41A
102
}
100
AcDbEntity
  8
0
100
AcDbCircle
 10
693.353638137226
 20
305.227444814842
 30
0.0
 40
37.210700754926
100
AcDbArc
 50
178.407805868376
 51
199.915665614925
1001
ACAD
1000
TCW40_DEV_WIDTH
1002
{
1040
-3.0
1002
}
  0
ARC
  5
404
102
{ACAD_REACTORS
330
41A
102
}
100
AcDbEntity
  8
0
100
AcDbCircle
 10
618.811774130324
 20
302.599242544278
 30
0.0
 40
37.210700754925
100
AcDbArc
 50
-19.915665614925
 51
1.592194131624
1001
ACAD
1000
TCW40_DEV_WIDTH
1002
{
1040
-3.0
1002
}
  0
ARC
  5
405
102
{ACAD_REACTORS
330
41A
102
}
100
AcDbEntity
  8
0
100
AcDbCircle
 10
673.064503792985
 20
305.013619857007
 30
0.0
 40
16.90778757258
100
AcDbArc
 50
95.01657311279
 51
179.522218934252
1001
ACAD
1000
TCW40_DEV_WIDTH
1002
{
1040
-3.0
1002
}
  0
LINE
  5
406
102
{ACAD_REACTORS
330
41A
102
}
100
AcDbEntity
  8
0
100
AcDbLine
 10
658.368322356369
 20
292.552117190418
 30
0.0
 11
666.608073672508
 21
279.36019640942
 31
0.0
1001
ACAD
1000
TCW40_DEV_WIDTH
1002
{
1040
-3.0
1002
}
  0
LINE
  5
407
102
{ACAD_REACTORS
330
41A
102
}
100
AcDbEntity
  8
0
100
AcDbLine
 10
653.797089911178
 20
289.923914919854
 30
0.0
 11
646.436291633821
 21
276.731994138856
 31
0.0
1001
ACAD
1000
TCW40_DEV_WIDTH
1002
{
1040
-3.0
1002
}
  0
ARC
  5
408
102
{ACAD_REACTORS
330
41A
102
}
100
AcDbEntity
  8
0
100
AcDbCircle
 10
635.002091923596
 20
302.724433578298
 30
0.0
 40
21.019942744833
100
AcDbArc
 50
0.620335952127
 51
69.163723124489
1001
ACAD
1000
TCW40_DEV_WIDTH
1002
{
1040
-3.0
1002
}
  0
ARC
  5
409
102
{ACAD_REACTORS
330
41A
102
}
100
AcDbEntity
  8
0
100
AcDbCircle
 10
613.941347034898
 20
261.067625496188
 30
0.0
 40
29.45324095049
100
AcDbArc
 50
5.441106184698
 51
36.879711558444
1001
ACAD
1000
TCW40_DEV_WIDTH
1002
{
1040
-3.0
1002
}
  0
ARC
  5
40A
102
{ACAD_REACTORS
330
41A
102
}
100
AcDbEntity
  8
0
100
AcDbCircle
 10
628.755735012369
 20
262.449408523366
 30
0.0
 40
14.531550811106
100
AcDbArc
 50
176.611289421423
 51
363.388710578591
1001
ACAD
1000
TCW40_DEV_WIDTH
1002
{
1040
-3.0
1002
}
  0
ARC
  5
40B
102
{ACAD_REACTORS
330
41A
102
}
100
AcDbEntity
  8
0
100
AcDbCircle
 10
643.098257821512
 20
262.844934533334
 30
0.0
 40
28.98539752881
100
AcDbArc
 50
152.752642627227
 51
183.18945085417
1001
ACAD
1000
TCW40_DEV_WIDTH
1002
{
1040
-3.0
1002
}
  0
ARC
  5
40C
102
{ACAD_REACTORS
330
41A
102
}
100
AcDbEntity
  8
0
100
AcDbCircle
 10
664.246476973802
 20
304.61085413341
 30
0.0
 40
37.210700754925
100
AcDbArc
 50
178.407805868376
 51
199.915665614924
1001
ACAD
1000
TCW40_DEV_WIDTH
1002
{
1040
-3.0
1002
}
  0
ARC
  5
40D
102
{ACAD_REACTORS
330
41A
102
}
100
AcDbEntity
  8
0
100
AcDbCircle
 10
589.704612966902
 20
301.982651862846
 30
0.0
 40
37.210700754926
100
AcDbArc
 50
-19.915665614925
 51
1.592194131624
1001
ACAD
1000
TCW40_DEV_WIDTH
1002
{
1040
-3.0
1002
}
  0
ARC
  5
40E
102
{ACAD_REACTORS
330
41A
102
}
100
AcDbEntity
  8
0
100
AcDbCircle
 10
646.307546132762
 20
303.466318846201
 30
0.0
 40
19.287200947725
100
AcDbArc
 50
101.449792976803
 51
176.814698896301
1001
ACAD
1000
TCW40_DEV_WIDTH
1002
{
1040
-3.0
1002
}
  0
LINE
  5
40F
102
{ACAD_REACTORS
330
41A
102
}
100
AcDbEntity
  8
0
100
AcDbLine
 10
629.261161192948
 20
291.935526508986
 30
0.0
 11
637.500912509086
 21
278.743605727988
 31
0.0
1001
ACAD
1000
TCW40_DEV_WIDTH
1002
{
1040
-3.0
1002
}
  0
LINE
  5
410
102
{ACAD_REACTORS
330
41A
102
}
100
AcDbEntity
  8
0
100
AcDbLine
 10
624.689928747756
 20
289.307324238422
 30
0.0
 11
617.3291304704
 21
276.115403457424
 31
0.0
1001
ACAD
1000
TCW40_DEV_WIDTH
1002
{
1040
-3.0
1002
}
  0
ARC
  5
411
102
{ACAD_REACTORS
330
41A
102
}
100
AcDbEntity
  8
0
100
AcDbCircle
 10
606.050563509175
 20
302.841350245914
 30
0.0
 40
20.851119739292
100
AcDbArc
 50
0.48147818369
 51
69.481738076945
1001
ACAD
1000
TCW40_DEV_WIDTH
1002
{
1040
-3.0
1002
}
  0
ARC
  5
412
102
{ACAD_REACTORS
330
41A
102
}
100
AcDbEntity
  8
0
100
AcDbCircle
 10
584.821491386158
 20
261.132183501963
 30
0.0
 40
29.453240950489
100
AcDbArc
 50
5.441106184698
 51
36.879711558441
1001
ACAD
1000
TCW40_DEV_WIDTH
1002
{
1040
-3.0
1002
}
  0
ARC
  5
413
102
{ACAD_REACTORS
330
41A
102
}
100
AcDbEntity
  8
0
100
AcDbCircle
 10
599.635879363628
 20
262.453131336254
 30
0.0
 40
14.535273623993
100
AcDbArc
 50
176.371905188297
 51
363.62809481171
1001
ACAD
1000
TCW40_DEV_WIDTH
1002
{
1040
-3.0
1002
}
  0
ARC
  5
414
102
{ACAD_REACTORS
330
41A
102
}
100
AcDbEntity
  8
0
100
AcDbCircle
 10
613.97840217277
 20
262.909492539108
 30
0.0
 40
28.985397528809
100
AcDbArc
 50
152.752642627227
 51
183.18945085417
1001
ACAD
1000
TCW40_DEV_WIDTH
1002
{
1040
-3.0
1002
}
  0
ARC
  5
415
102
{ACAD_REACTORS
330
41A
102
}
100
AcDbEntity
  8
0
100
AcDbCircle
 10
635.126621325063
 20
304.675412139185
 30
0.0
 40
37.210700754926
100
AcDbArc
 50
178.407805868376
 51
199.915665614925
1001
ACAD
1000
TCW40_DEV_WIDTH
1002
{
1040
-3.0
1002
}
  0
ARC
  5
416
102
{ACAD_REACTORS
330
41A
102
}
100
AcDbEntity
  8
0
100
AcDbCircle
 10
560.584757318161
 20
302.047209868621
 30
0.0
 40
37.210700754926
100
AcDbArc
 50
-19.915665614925
 51
1.592194131624
1001
ACAD
1000
TCW40_DEV_WIDTH
1002
{
1040
-3.0
1002
}
  0
ARC
  5
417
102
{ACAD_REACTORS
330
41A
102
}
100
AcDbEntity
  8
0
100
AcDbCircle
 10
617.042531318505
 20
303.588361718527
 30
0.0
 40
19.139135451623
100
AcDbArc
 50
101.096409706119
 51
176.962376275089
1001
ACAD
1000
TCW40_DEV_WIDTH
1002
{
1040
-3.0
1002
}
  0
LINE
  5
418
102
{ACAD_REACTORS
330
41A
102
}
100
AcDbEntity
  8
0
100
AcDbLine
 10
600.141305544209
 20
292.000084514761
 30
0.0
 11
608.381056860346
 21
278.808163733763
 31
0.0
1001
ACAD
1000
TCW40_DEV_WIDTH
1002
{
1040
-3.0
1002
}
  0
LINE
  5
419
102
{ACAD_REACTORS
330
41A
102
}
100
AcDbEntity
  8
0
100
AcDbLine
 10
595.570073099017
 20
289.371882244197
 30
0.0
 11
588.209274821659
 21
276.179961463199
 31
0.0
1001
ACAD
1000
TCW40_DEV_WIDTH
1002
{
1040
-3.0
1002
}
  0
ENDSEC
  0
SECTION
  2
OBJECTS
  0
DICTIONARY
  5
19
100
AcDbDictionary
280
           0
281
           1
  3
ACAD_GROUP
350
1A
  3
ACAD_MLINESTYLE
350
1B
  3
ACAD_LAYOUT
350
1E
  3
ACAD_PLOTSETTINGS
350
22
  3
ACAD_PLOTSTYLENAME
350
1F
  0
DICTIONARY
  5
1A
102
{ACAD_REACTORS
330
19
102
}
100
AcDbDictionary
280
           0
281
           1
  3
GROUP_2
350
41A
  0
DICTIONARY
  5
1B
102
{ACAD_REACTORS
330
19
102
}
100
AcDbDictionary
280
           0
281
           1
  3
Standard
350
1C
  0
MLINESTYLE
  5
1C
100
AcDbMlineStyle
  2
STANDARD
 70
           0
  3

 62
         256
 51
90.0
 52
90.0
 71
           3
 49
5.0
 62
           7
  6
ByLayer
 49
0.0
 62
           7
  6
ByLayer
 49
-5.0
 62
           7
  6
ByLayer
  0
ACDBDICTIONARYWDFLT
  5
1F
102
{ACAD_REACTORS
330
19
102
}
100
AcDbDictionary
281
           1
  3
Normal
350
1D
100
AcDbDictionaryWithDefault
340
1D
  0
ACDBPLACEHOLDER
  5
1D
102
{ACAD_REACTORS
330
1F
102
}
  0
LAYOUT
  5
21
102
{ACAD_REACTORS
330
1E
102
}
100
AcDbPlotSettings
  1

  2

  4

  6

 40
0.0
 41
0.0
 42
0.0
 43
0.0
 44
0.0
 45
0.0
 46
0.0
 47
0.0
 48
0.0
 49
0.0
140
0.0
141
0.0
142
1.0
143
1.0
 70
           0
 72
           0
 73
           0
 74
           0
  7

 75
           0
147
1.0
148
0.0
149
0.0
100
AcDbLayout
  1
Layout1
 70
           0
 71
           0
 10
0.0
 20
0.0
 11
0.0
 21
0.0
 12
0.0
 22
0.0
 32
0.0
 14
0.0
 24
0.0
 34
0.0
 15
0.0
 25
0.0
 35
0.0
146
0.0
 13
0.0
 23
0.0
 33
0.0
 16
0.0
 26
0.0
 36
0.0
 17
0.0
 27
0.0
 37
0.0
 76
           0
330
B
331
0
345
0
346
0
  0
DICTIONARY
  5
1E
102
{ACAD_REACTORS
330
19
102
}
100
AcDbDictionary
280
           0
281
           1
  3
Model
350
41B
  3
Paper 1
350
41C
  0
DICTIONARY
  5
22
102
{ACAD_REACTORS
330
19
102
}
100
AcDbDictionary
280
           0
281
           1
  0
GROUP
  5
41A
102
{ACAD_REACTORS
330
1A
102
}
100
AcDbGroup
300

 70
           0
 71
           1
340
27D
340
27E
340
27F
340
280
340
281
340
282
340
283
340
284
340
285
340
286
340
287
340
288
340
289
340
28A
340
28B
340
28C
340
28D
340
28E
340
28F
340
290
340
291
340
292
340
293
340
294
340
295
340
296
340
297
340
298
340
299
340
29A
340
29B
340
29C
340
29D
340
29E
340
29F
340
2A0
340
2A1
340
2A2
340
2A3
340
2A4
340
2A5
340
2A6
340
2A7
340
2A8
340
2A9
340
2AA
340
2AB
340
2AC
340
2AD
340
2AE
340
2AF
340
2B0
340
2B1
340
2B2
340
2B3
340
2B4
340
2B5
340
2B6
340
2B7
340
2B8
340
2B9
340
2BA
340
2BB
340
2BC
340
2BD
340
2BE
340
2BF
340
2C0
340
2C1
340
2C2
340
2C3
340
2C4
340
2C5
340
2C6
340
2C7
340
2C8
340
2C9
340
2CA
340
2CB
340
2CC
340
2CD
340
2CE
340
2CF
340
2D0
340
2D1
340
2D2
340
2D3
340
2D4
340
2D5
340
2D6
340
2D7
340
2D8
340
2D9
340
2DA
340
2DB
340
2DC
340
2DD
340
2DE
340
2DF
340
2E0
340
2E1
340
2E2
340
2E3
340
2E4
340
2E5
340
2E6
340
2E7
340
2E8
340
2E9
340
2EA
340
2EB
340
2EC
340
2ED
340
2EE
340
2EF
340
2F0
340
2F1
340
2F2
340
2F3
340
2F4
340
2F5
340
2F6
340
2F7
340
2F8
340
2F9
340
2FA
340
2FB
340
2FC
340
2FD
340
2FE
340
2FF
340
300
340
301
340
302
340
303
340
304
340
305
340
306
340
307
340
308
340
309
340
30A
340
30B
340
30C
340
30D
340
30E
340
30F
340
310
340
311
340
312
340
313
340
314
340
315
340
316
340
317
340
318
340
319
340
31A
340
31B
340
31C
340
31D
340
31E
340
31F
340
320
340
321
340
322
340
323
340
324
340
325
340
326
340
327
340
328
340
329
340
32A
340
32B
340
32C
340
32D
340
32E
340
32F
340
330
340
331
340
332
340
333
340
334
340
335
340
336
340
337
340
338
340
339
340
33A
340
33B
340
33C
340
33D
340
33E
340
33F
340
340
340
341
340
342
340
343
340
344
340
345
340
346
340
347
340
348
340
349
340
34A
340
34B
340
34C
340
34D
340
34E
340
34F
340
350
340
351
340
352
340
353
340
354
340
355
340
356
340
357
340
358
340
359
340
35A
340
35B
340
35C
340
35D
340
35E
340
35F
340
360
340
361
340
362
340
363
340
364
340
365
340
366
340
367
340
368
340
369
340
36A
340
36B
340
36C
340
36D
340
36E
340
36F
340
370
340
371
340
372
340
373
340
374
340
375
340
376
340
377
340
378
340
379
340
37A
340
37B
340
37C
340
37D
340
37E
340
37F
340
380
340
381
340
382
340
383
340
384
340
385
340
386
340
387
340
388
340
389
340
38A
340
38B
340
38C
340
38D
340
38E
340
38F
340
390
340
391
340
392
340
393
340
394
340
395
340
396
340
397
340
398
340
399
340
39A
340
39B
340
39C
340
39D
340
39E
340
39F
340
3A0
340
3A1
340
3A2
340
3A3
340
3A4
340
3A5
340
3A6
340
3A7
340
3A8
340
3A9
340
3AA
340
3AB
340
3AC
340
3AD
340
3AE
340
3AF
340
3B0
340
3B1
340
3B2
340
3B3
340
3B4
340
3B5
340
3B6
340
3B7
340
3B8
340
3B9
340
3BA
340
3BB
340
3BC
340
3BD
340
3BE
340
3BF
340
3C0
340
3C1
340
3C2
340
3C3
340
3C4
340
3C5
340
3C6
340
3C7
340
3C8
340
3C9
340
3CA
340
3CB
340
3CC
340
3CD
340
3CE
340
3CF
340
3D0
340
3D1
340
3D2
340
3D3
340
3D4
340
3D5
340
3D6
340
3D7
340
3D8
340
3D9
340
3DA
340
3DB
340
3DC
340
3DD
340
3DE
340
3DF
340
3E0
340
3E1
340
3E2
340
3E3
340
3E4
340
3E5
340
3E6
340
3E7
340
3E8
340
3E9
340
3EA
340
3EB
340
3EC
340
3ED
340
3EE
340
3EF
340
3F0
340
3F1
340
3F2
340
3F3
340
3F4
340
3F5
340
3F6
340
3F7
340
3F8
340
3F9
340
3FA
340
3FB
340
3FC
340
3FD
340
3FE
340
3FF
340
400
340
401
340
402
340
403
340
404
340
405
340
406
340
407
340
408
340
409
340
40A
340
40B
340
40C
340
40D
340
40E
340
40F
340
410
340
411
340
412
340
413
340
414
340
415
340
416
340
417
340
418
340
419
  0
LAYOUT
  5
41B
100
AcDbPlotSettings
  1

  2

  4

  6

 40
0.0
 41
0.0
 42
0.0
 43
0.0
 44
0.0
 45
0.0
 46
0.0
 47
0.0
 48
0.0
 49
0.0
140
0.0
141
0.0
142
1.0
143
1.0
 70
           0
 72
           1
 73
           0
 74
           0
  7

 75
           0
147
1.0
148
0.0
149
0.0
100
AcDbLayout
  1
Model
 70
           0
 71
           0
 10
0.0
 20
0.0
 11
0.0
 21
0.0
 12
0.0
 22
0.0
 32
0.0
 14
0.0
 24
0.0
 34
0.0
 15
0.0
 25
0.0
 35
0.0
146
0.0
 13
0.0
 23
0.0
 33
0.0
 16
0.0
 26
0.0
 36
0.0
 17
0.0
 27
0.0
 37
0.0
 76
           0
330
A
331
0
345
0
346
0
  0
LAYOUT
  5
41C
100
AcDbPlotSettings
  1

  2
none_device
  4

  6

 40
0.0
 41
0.0
 42
0.0
 43
0.0
 44
297.0
 45
210.0
 46
0.0
 47
0.0
 48
0.0
 49
0.0
140
0.0
141
0.0
142
1.0
143
1.0
 70
           0
 72
           1
 73
           0
 74
           0
  7

 75
           0
147
1.0
148
0.0
149
0.0
100
AcDbLayout
  1
Paper 1
 70
           1
 71
           1
 10
0.0
 20
0.0
 11
297.0
 21
210.0
 12
0.0
 22
0.0
 32
0.0
 14
0.0
 24
0.0
 34
0.0
 15
0.0
 25
0.0
 35
0.0
146
0.0
 13
0.0
 23
0.0
 33
0.0
 16
0.0
 26
0.0
 36
0.0
 17
0.0
 27
0.0
 37
0.0
 76
           0
330
B
331
0
345
0
346
0
  0
ENDSEC
  0
EOF
